<?xml version="1.0" standalone="no"?>
<!DOCTYPE svg PUBLIC "-//W3C//DTD SVG 1.1//EN" "http://www.w3.org/Graphics/SVG/1.1/DTD/svg11.dtd" >
<svg xmlns="http://www.w3.org/2000/svg" xmlns:xlink="http://www.w3.org/1999/xlink" version="1.1">
<metadata>
Created by FontForge 20201107 at Thu Mar 13 15:55:44 2025
 By 
Copyright 2017-2021 Indian Type Foundry. All rights reserved.
</metadata>
<defs>
<font id="Satoshi-Black" horiz-adv-x="1351" >
  <font-face 
    font-family="Satoshi Black"
    font-weight="900"
    font-stretch="normal"
    units-per-em="2048"
    panose-1="0 0 0 0 0 0 0 0 0 0"
    ascent="1638"
    descent="-410"
    x-height="1024"
    cap-height="1516"
    bbox="-420 -524 3234 2312"
    underline-thickness="163"
    underline-position="-480"
    unicode-range="U+0020-FB04"
  />
<missing-glyph horiz-adv-x="1024" 
d="M102 -492v2274h820v-2274h-820zM205 -389h614v2068h-614v-2068z" />
    <glyph glyph-name="f_f" unicode="ff" horiz-adv-x="1437" 
d="M23 1024h141v82q0 223 108.5 330.5t309.5 107.5q68 0 141 -12v-270h-88q-90 0 -123 -40.5t-33 -115.5v-82h377v82q0 223 108.5 330.5t309.5 107.5q68 0 141 -12v-270h-88q-90 0 -123 -40.5t-33 -115.5v-82h244v-262h-244v-762h-315v762h-377v-762h-315v762h-141v262z" />
    <glyph glyph-name="fi" unicode="fi" horiz-adv-x="1294" 
d="M856 0v762h-377v-762h-315v762h-141v262h141v82q0 222 105 330t292 108q67 0 141 -12v-270h-88q-76 0 -105.5 -41t-29.5 -115v-82h695v-1024h-318zM1016 1184q-75 0 -127.5 52.5t-52.5 127.5t52.5 126.5t127.5 51.5q74 0 126 -51.5t52 -126.5t-52 -127.5t-126 -52.5z" />
    <glyph glyph-name="fl" unicode="fl" horiz-adv-x="1290" 
d="M23 1024h141v82q0 222 102.5 330t288.5 108q67 0 141 -12v-270h-88q-75 0 -102 -40.5t-27 -115.5v-82h377v520h315v-1544h-315v762h-377v-762h-315v762h-141v262z" />
    <glyph glyph-name="f_f_i" unicode="ffi" horiz-adv-x="1986" 
d="M23 1024h141v82q0 223 108.5 330.5t309.5 107.5q68 0 141 -12v-270h-88q-90 0 -123 -40.5t-33 -115.5v-82h377v82q0 222 105 330t292 108q69 0 142 -12v-270h-88q-76 0 -106 -41t-30 -115v-82h695v-1024h-318v762h-377v-762h-315v762h-377v-762h-315v762h-141v262z
M1708 1184q-75 0 -127.5 52.5t-52.5 127.5t52.5 126.5t127.5 51.5q74 0 126 -51.5t52 -126.5t-52 -127.5t-126 -52.5z" />
    <glyph glyph-name="f_f_l" unicode="ffl" horiz-adv-x="1982" 
d="M23 1024h141v82q0 223 108.5 330.5t309.5 107.5q68 0 141 -12v-270h-88q-90 0 -123 -40.5t-33 -115.5v-82h377v82q0 223 108.5 330.5t309.5 107.5q68 0 141 -12v-270h-88q-90 0 -123 -40.5t-33 -115.5v-82h377v520h316v-1544h-316v762h-377v-762h-315v762h-377v-762h-315
v762h-141v262z" />
    <glyph glyph-name="f_t" unicode="ft" horiz-adv-x="1388" 
d="M23 1024h141v82q0 222 105 330t292 108q67 0 141 -12v-270h-88q-76 0 -105.5 -41t-29.5 -115v-82h377v317h315v-317h195v-262h-195v-762h-315v762h-377v-762h-315v762h-141v262z" />
    <glyph glyph-name=".notdef" horiz-adv-x="1024" 
d="M102 -492v2274h820v-2274h-820zM205 -389h614v2068h-614v-2068z" />
    <glyph glyph-name=".null" horiz-adv-x="0" 
 />
    <glyph glyph-name="nonmarkingreturn" horiz-adv-x="682" 
 />
    <glyph glyph-name="space" unicode=" " horiz-adv-x="542" 
 />
    <glyph glyph-name="exclam" unicode="!" horiz-adv-x="716" 
d="M485 453h-260q-57 287 -57 721v342h381v-342q0 -202 -18 -397t-46 -324zM356 -27q-78 0 -133 55t-55 130q0 77 55 131.5t133 54.5q76 0 132.5 -55t56.5 -131q0 -75 -57 -130t-132 -55z" />
    <glyph glyph-name="quotedbl" unicode="&#x22;" horiz-adv-x="1036" 
d="M446 1333l-73 -465h-158l-76 465q-16 96 34.5 146.5t127.5 50.5q65 0 113 -51t32 -146zM897 1333l-74 -465h-157l-76 465q-16 96 34.5 146.5t127.5 50.5q65 0 113 -51t32 -146z" />
    <glyph glyph-name="numbersign" unicode="#" horiz-adv-x="1527" 
d="M137 655h182l39 203h-208l61 295h205l71 363h314l-72 -363h203l69 363h314l-70 -363h207l-61 -295h-203l-41 -203h237l-59 -295h-235l-70 -360h-313l69 360h-203l-69 -360h-314l70 360h-184zM633 655h201l40 203h-202z" />
    <glyph glyph-name="dollar" unicode="$" horiz-adv-x="1247" 
d="M539 -190v165q-225 19 -356.5 143.5t-131.5 321.5h330q0 -148 158 -176v354l-56 11q-409 82 -409 446q0 185 128.5 311.5t336.5 151.5v170h188v-170q202 -25 318 -147t116 -314h-319q0 126 -115 168v-362l59 -13q209 -43 304.5 -141.5t95.5 -271.5q0 -192 -123.5 -319
t-335.5 -156v-172h-188zM397 1087q0 -66 33.5 -105.5t108.5 -59.5v327q-68 -15 -105 -57t-37 -105zM864 424q0 129 -137 156v-308q65 19 101 58t36 94z" />
    <glyph glyph-name="percent" unicode="%" horiz-adv-x="2025" 
d="M872 1133q0 -181 -114.5 -296.5t-294.5 -115.5t-295 115.5t-115 296.5t115 296t295 115t294.5 -115t114.5 -296zM1741 1511l-1151 -1511h-309l1151 1511h309zM627 1133q0 77 -45.5 125.5t-118.5 48.5t-118.5 -48.5t-45.5 -125.5t45.5 -126t118.5 -49t118.5 49t45.5 126z
M1972 385q0 -181 -114.5 -296.5t-294.5 -115.5t-295 115.5t-115 296.5t115 296.5t295 115.5t294.5 -115.5t114.5 -296.5zM1726 385q0 77 -45 125.5t-118 48.5t-118.5 -48.5t-45.5 -125.5t45.5 -125.5t118.5 -48.5t118 48.5t45 125.5z" />
    <glyph glyph-name="ampersand" unicode="&#x26;" horiz-adv-x="1576" 
d="M1184 0l-84 94q-185 -121 -441 -121q-250 0 -407.5 122.5t-157.5 316.5q0 133 86.5 244.5t245.5 183.5q-79 92 -112 168t-33 166q0 158 117.5 263t295.5 105q177 0 289.5 -99.5t112.5 -256.5q0 -116 -62.5 -211.5t-197.5 -186.5l237 -264q29 101 29 219h309
q0 -267 -123 -456l260 -287h-364zM578 1176q0 -54 24.5 -104t81.5 -116q121 74 121 218q0 57 -29 88.5t-82 31.5q-54 0 -85 -31.5t-31 -86.5zM430 446q0 -93 73 -146.5t199 -53.5q123 0 211 55l-335 373q-148 -86 -148 -228z" />
    <glyph glyph-name="quotesingle" unicode="'" horiz-adv-x="585" 
d="M446 1333l-73 -465h-158l-76 465q-16 96 34.5 146.5t127.5 50.5q65 0 113 -51t32 -146z" />
    <glyph glyph-name="parenleft" unicode="(" horiz-adv-x="698" 
d="M698 -434h-241q-173 179 -274 449t-101 579q0 290 95.5 563.5t279.5 464.5h241q-137 -185 -217 -454.5t-80 -573.5q0 -286 75 -558.5t222 -469.5z" />
    <glyph glyph-name="parenright" unicode=")" horiz-adv-x="698" 
d="M242 -434h-242q147 197 222 469.5t75 558.5q0 304 -80 573.5t-217 454.5h242q184 -191 279 -464.5t95 -563.5q0 -309 -100.5 -579t-273.5 -449z" />
    <glyph glyph-name="asterisk" unicode="*" horiz-adv-x="880" 
d="M184 1153l-143 51l57 148l138 -45q77 -26 143 -76q-19 78 -19 162v151h158v-151q0 -81 -18 -162q71 52 145 76l139 45l56 -148l-146 -51q-65 -25 -159 -33q75 -61 110 -116l84 -130l-129 -88l-86 121q-48 66 -78 144q-20 -79 -71 -144l-93 -121l-129 88l88 130
q39 56 113 116q-99 11 -160 33z" />
    <glyph glyph-name="plus" unicode="+" 
d="M164 821h381v381h262v-381h381v-262h-381v-383h-262v383h-381v262z" />
    <glyph glyph-name="comma" unicode="," horiz-adv-x="630" 
d="M504 104q0 -147 -92.5 -250t-237.5 -118v112q79 14 128.5 55.5t53.5 102.5q-24 -12 -59 -12q-72 0 -121 47t-49 115q0 85 48.5 136.5t127.5 51.5q89 0 145 -67t56 -173z" />
    <glyph glyph-name="hyphen" unicode="-" horiz-adv-x="946" 
d="M123 414v278h700v-278h-700z" />
    <glyph glyph-name="period" unicode="." horiz-adv-x="630" 
d="M315 -27q-78 0 -133 55t-55 130q0 77 55 131.5t133 54.5q76 0 132.5 -55t56.5 -131q0 -75 -57 -130t-132 -55z" />
    <glyph glyph-name="slash" unicode="/" horiz-adv-x="905" 
d="M313 0h-313l590 1511h315z" />
    <glyph glyph-name="zero" unicode="0" horiz-adv-x="1470" 
d="M74 754q0 232 82.5 412t233 279t345.5 99q146 0 269.5 -58t210 -161t134.5 -250t48 -321q0 -234 -78 -410t-228.5 -273.5t-355.5 -97.5t-355 97.5t-228 273.5t-78 410zM401 754q0 -241 87 -365.5t247 -124.5t247 124.5t87 365.5q0 248 -86.5 373.5t-247.5 125.5
t-247.5 -125.5t-86.5 -373.5z" />
    <glyph glyph-name="one" unicode="1" horiz-adv-x="894" 
d="M414 1219h-344v297h661v-1516h-317v1219z" />
    <glyph glyph-name="two" unicode="2" horiz-adv-x="1239" 
d="M1178 4l-1082 -4v246l500 416q124 102 176.5 181t52.5 171q0 115 -54.5 175t-156.5 60q-106 0 -164.5 -69.5t-58.5 -196.5h-330q0 255 150.5 408t400.5 153q260 0 406.5 -134t146.5 -376q0 -147 -80.5 -275.5t-232.5 -256.5l-227 -191h553v-307z" />
    <glyph glyph-name="three" unicode="3" horiz-adv-x="1167" 
d="M537 713h-222v213q2 2 6.5 5t6.5 5l329 289h-571v291h987v-265l-319 -280q163 -49 266.5 -174t103.5 -310q0 -155 -77.5 -273.5t-205 -179.5t-282.5 -61q-112 0 -209.5 34t-172.5 98.5t-118 165t-43 225.5h328q0 -110 60.5 -170t162.5 -60q97 0 157 61t60 162
q0 99 -60.5 161.5t-186.5 62.5z" />
    <glyph glyph-name="four" unicode="4" horiz-adv-x="1345" 
d="M1294 268h-186v-268h-313v268h-754v291l653 957h414v-957h186v-291zM393 559h402v590z" />
    <glyph glyph-name="five" unicode="5" horiz-adv-x="1251" 
d="M610 -25q-244 0 -393 144t-149 379h327q0 -107 59.5 -168.5t163.5 -61.5q113 0 177.5 68t64.5 188q0 117 -61.5 182.5t-173.5 65.5q-76 0 -140 -35.5t-92 -91.5l-303 57l191 814h823v-308h-586l-59 -221q102 60 241 60q223 0 361.5 -137t138.5 -365q0 -255 -163.5 -412.5
t-426.5 -157.5z" />
    <glyph glyph-name="six" unicode="6" horiz-adv-x="1290" 
d="M313 1108l297 408h379l-346 -465q30 6 62 6q233 0 378.5 -146.5t145.5 -380.5q0 -247 -163 -402t-417 -155q-167 0 -302 73.5t-210.5 201t-75.5 284.5q0 136 55 259t197 317zM401 528q0 -117 69 -189.5t179 -72.5q108 0 176 72.5t68 189.5t-67.5 188.5t-176.5 71.5
q-112 0 -180 -71.5t-68 -188.5z" />
    <glyph glyph-name="seven" unicode="7" horiz-adv-x="1144" 
d="M10 1516h1125v-308l-523 -1208h-344l533 1208h-791v308z" />
    <glyph glyph-name="eight" unicode="8" horiz-adv-x="1349" 
d="M74 438q0 132 65 234.5t176 146.5q-186 91 -186 307q0 186 152.5 302t396.5 116q245 0 394 -116t149 -306q0 -106 -49.5 -185t-143.5 -120q114 -43 181 -144t67 -233q0 -214 -162.5 -339.5t-439.5 -125.5t-438.5 124.5t-161.5 338.5zM428 1094q0 -77 66 -121.5t178 -44.5
t177.5 44.5t65.5 121.5q0 78 -65.5 124t-177.5 46t-178 -46t-66 -124zM399 461q0 -92 73 -143.5t202 -51.5t201.5 51.5t72.5 143.5t-73 144t-201 52t-201.5 -52t-73.5 -144z" />
    <glyph glyph-name="nine" unicode="9" horiz-adv-x="1290" 
d="M977 408l-297 -408h-379l346 465q-30 -6 -61 -6q-233 0 -379 146.5t-146 379.5q0 247 163 402t417 155q167 0 302 -73.5t210.5 -201t75.5 -284.5q0 -136 -55 -258t-197 -317zM889 987q0 117 -69 189.5t-179 72.5q-108 0 -176 -72.5t-68 -189.5t67.5 -188.5t176.5 -71.5
q112 0 180 71.5t68 188.5z" />
    <glyph glyph-name="colon" unicode=":" horiz-adv-x="671" 
d="M336 694q-78 0 -133.5 55t-55.5 130q0 77 55.5 131.5t133.5 54.5q76 0 132 -55t56 -131q0 -75 -56.5 -130t-131.5 -55zM336 -27q-78 0 -133.5 55t-55.5 130q0 77 55.5 131.5t133.5 54.5q76 0 132 -55t56 -131q0 -75 -56.5 -130t-131.5 -55z" />
    <glyph glyph-name="semicolon" unicode=";" horiz-adv-x="671" 
d="M336 694q-78 0 -133.5 55t-55.5 130q0 77 55.5 131.5t133.5 54.5q76 0 132 -55t56 -131q0 -75 -56.5 -130t-131.5 -55zM524 104q0 -148 -92 -250.5t-237 -117.5v112q79 14 128.5 55.5t53.5 102.5q-24 -12 -60 -12q-72 0 -121 47t-49 115q0 85 48.5 136.5t128.5 51.5
q89 0 144.5 -67t55.5 -173z" />
    <glyph glyph-name="less" unicode="&#x3c;" 
d="M1188 299v-307l-1024 356v336l1024 356v-307l-723 -217z" />
    <glyph glyph-name="equal" unicode="=" 
d="M164 979h1024v-262h-1024v262zM164 528h1024v-262h-1024v262z" />
    <glyph glyph-name="greater" unicode="&#x3e;" 
d="M1188 348l-1024 -356v307l723 217l-723 217v307l1024 -356v-336z" />
    <glyph glyph-name="question" unicode="?" horiz-adv-x="1181" 
d="M682 412h-285v43q0 57 14.5 108.5t33 86.5t54 74t58 58.5t64.5 53.5q40 32 61.5 51.5t47 49.5t37 61t11.5 67q0 88 -47 136t-135 48q-94 0 -148.5 -63t-54.5 -170h-330q0 234 150.5 381t390.5 147q242 0 378 -121t136 -336q0 -64 -17.5 -121t-40 -95t-63 -78t-68 -61
t-73.5 -52q-86 -58 -130 -107.5t-44 -117.5v-43zM549 -27q-78 0 -133.5 55t-55.5 130q0 77 55.5 131.5t133.5 54.5q76 0 132 -55.5t56 -130.5q0 -74 -56 -129.5t-132 -55.5z" />
    <glyph glyph-name="at" unicode="@" horiz-adv-x="1980" 
d="M545 467q0 125 87.5 202.5t256.5 90.5l260 20v15q0 69 -40.5 104t-117.5 35q-91 0 -138.5 -33t-47.5 -96h-238q0 157 120 251.5t319 94.5q202 0 311.5 -108t109.5 -308v-270q0 -111 91 -111q71 0 115 98.5t44 256.5q0 140 -50.5 260.5t-139 205.5t-214.5 133t-272 48
q-150 0 -280 -53.5t-221.5 -147t-144 -225t-52.5 -283.5q0 -203 90 -365.5t249.5 -253.5t358.5 -91q207 0 402 126l84 -174q-219 -141 -486 -141q-191 0 -358.5 68t-286 186.5t-186.5 286t-68 358.5q0 254 116.5 459.5t322 321.5t460.5 116q250 0 450.5 -108t313.5 -299
t113 -428q0 -250 -109.5 -394.5t-298.5 -144.5q-106 0 -176 42.5t-98 123.5q-25 -70 -114.5 -118t-196.5 -48q-160 0 -250 78.5t-90 218.5zM836 479q0 -51 31.5 -74.5t97.5 -23.5q88 0 137 42.5t49 117.5v49l-145 -12q-94 -7 -132 -30.5t-38 -68.5z" />
    <glyph glyph-name="A" unicode="A" horiz-adv-x="1439" 
d="M365 0h-347l541 1516h324l538 -1516h-352l-106 319h-490zM678 922l-109 -324h299l-108 324q-36 113 -41 147q-8 -46 -41 -147z" />
    <glyph glyph-name="B" unicode="B" horiz-adv-x="1361" 
d="M158 0v1516h630q228 0 359 -112.5t131 -307.5q0 -121 -54 -208.5t-157 -131.5q112 -37 170.5 -123t58.5 -215q0 -201 -131 -309.5t-377 -108.5h-630zM754 1225h-265v-330h265q89 0 136.5 43t47.5 125q0 80 -46.5 121t-137.5 41zM770 616h-281v-325h281q186 0 186 168
q0 77 -47.5 117t-138.5 40z" />
    <glyph glyph-name="C" unicode="C" horiz-adv-x="1591" 
d="M813 -25q-341 0 -540 210.5t-199 570.5q0 234 93.5 412t264.5 275t395 97q284 0 474 -151t225 -406h-350q-34 114 -127 176t-230 62q-185 0 -290 -123t-105 -340q0 -214 106 -338.5t289 -124.5q139 0 236.5 64.5t128.5 177.5h344q-40 -254 -235.5 -408t-479.5 -154z" />
    <glyph glyph-name="D" unicode="D" horiz-adv-x="1558" 
d="M752 0h-594v1516h573q220 0 391.5 -96t267 -269.5t95.5 -396.5q0 -219 -92.5 -390.5t-260 -267.5t-380.5 -96zM698 1208h-209v-901h230q196 0 306 118t110 329q0 215 -115.5 334.5t-321.5 119.5z" />
    <glyph glyph-name="E" unicode="E" horiz-adv-x="1234" 
d="M1120 0h-962v1516h962v-308h-631v-297h560v-290h-560v-314h631v-307z" />
    <glyph glyph-name="F" unicode="F" horiz-adv-x="1191" 
d="M1022 592h-533v-592h-331v1516h964v-308h-633v-317h533v-299z" />
    <glyph glyph-name="G" unicode="G" horiz-adv-x="1640" 
d="M840 1229q-201 0 -308.5 -130.5t-107.5 -355.5q0 -222 113 -339t301 -117q177 0 270 82t104 211h-401v290h713v-870h-285l-18 137q-62 -73 -177 -116.5t-249 -43.5q-319 0 -520 215t-201 562q0 227 95 405.5t271.5 279.5t407.5 101q274 0 462 -148.5t214 -392.5h-348
q-28 115 -119 172.5t-217 57.5z" />
    <glyph glyph-name="H" unicode="H" horiz-adv-x="1564" 
d="M489 0h-331v1516h331v-598h586v598h332v-1516h-332v610h-586v-610z" />
    <glyph glyph-name="I" unicode="I" horiz-adv-x="647" 
d="M489 1516v-1516h-331v1516h331z" />
    <glyph glyph-name="J" unicode="J" horiz-adv-x="1181" 
d="M41 434v107h319v-107q0 -67 41.5 -110t130.5 -43q170 0 170 165v1070h332v-1090q0 -198 -136 -325.5t-361 -127.5q-241 0 -368.5 127.5t-127.5 333.5z" />
    <glyph glyph-name="K" unicode="K" horiz-adv-x="1452" 
d="M489 1516v-725l547 725h391l-495 -648l500 -868h-383l-334 586l-226 -295v-291h-331v1516h331z" />
    <glyph glyph-name="L" unicode="L" horiz-adv-x="1138" 
d="M489 1516v-1209h598v-307h-929v1516h331z" />
    <glyph glyph-name="M" unicode="M" horiz-adv-x="1865" 
d="M479 0h-321v1516h321l451 -1131l452 1131h326v-1516h-322v317q0 256 2.5 343t14.5 169l-322 -829h-303l-319 829q20 -126 20 -405v-424z" />
    <glyph glyph-name="N" unicode="N" horiz-adv-x="1609" 
d="M485 0h-327v1516h327l639 -965v965h328v-1516h-328l-639 963v-963z" />
    <glyph glyph-name="O" unicode="O" horiz-adv-x="1632" 
d="M1559 760q0 -171 -55 -317.5t-152.5 -249t-236.5 -160.5t-302 -58q-216 0 -384.5 98.5t-261.5 277t-93 407.5t93.5 407.5t262.5 277.5t385 99q163 0 301.5 -57.5t236 -159.5t152 -248t54.5 -317zM1208 760q0 217 -104 340t-287 123q-184 0 -288.5 -123t-104.5 -340
q0 -218 104.5 -341.5t288.5 -123.5q183 0 287 124.5t104 340.5z" />
    <glyph glyph-name="P" unicode="P" horiz-adv-x="1339" 
d="M772 504h-283v-504h-331v1516h614q232 0 374 -139.5t142 -366.5t-142 -366.5t-374 -139.5zM698 1221h-209v-422h209q240 0 240 211t-240 211z" />
    <glyph glyph-name="Q" unicode="Q" horiz-adv-x="1632" 
d="M1346 -131l-170 192q-163 -86 -363 -86q-216 0 -384.5 98.5t-261.5 277t-93 407.5t93.5 407.5t262.5 277.5t385 99q163 0 301.5 -57.5t236 -159.5t152 -248t54.5 -317q0 -309 -168 -520l163 -187zM1208 760q0 217 -104 340t-287 123q-184 0 -288.5 -123t-104.5 -340
q0 -218 104.5 -341.5t288.5 -123.5q74 0 133 20l-198 226l209 184l196 -221q51 108 51 256z" />
    <glyph glyph-name="R" unicode="R" horiz-adv-x="1409" 
d="M489 0h-331v1516h585q277 0 427.5 -128.5t150.5 -363.5q0 -293 -252 -422l266 -602h-362l-228 530h-256v-530zM489 1221v-400h252q109 0 169.5 53t60.5 150q0 95 -59 146t-169 51h-254z" />
    <glyph glyph-name="S" unicode="S" horiz-adv-x="1247" 
d="M74 1075q0 206 156.5 337.5t400.5 131.5t387 -126t143 -341h-330q0 79 -55 125.5t-149 46.5q-102 0 -161.5 -43.5t-59.5 -118.5q0 -68 36 -104.5t117 -54.5l227 -47q204 -42 302 -144t98 -280q0 -219 -158.5 -351.5t-419.5 -132.5q-254 0 -405.5 127t-151.5 340h330
q0 -83 59.5 -127.5t169.5 -44.5q113 0 178.5 42t65.5 114q0 63 -32 97.5t-107 49.5l-232 47q-409 83 -409 457z" />
    <glyph glyph-name="T" unicode="T" horiz-adv-x="1273" 
d="M41 1208v308h1192v-308h-430v-1208h-332v1208h-430z" />
    <glyph glyph-name="U" unicode="U" horiz-adv-x="1544" 
d="M147 569v947h332v-924q0 -142 75.5 -218.5t215.5 -76.5q141 0 218 77.5t77 217.5v924h332v-947q0 -270 -170.5 -432t-456.5 -162q-284 0 -453.5 161.5t-169.5 432.5z" />
    <glyph glyph-name="V" unicode="V" horiz-adv-x="1507" 
d="M588 0l-568 1516h355l287 -766q48 -128 96 -320q48 177 100 320l283 766h346l-557 -1516h-342z" />
    <glyph glyph-name="W" unicode="W" horiz-adv-x="2189" 
d="M485 0l-454 1516h346l198 -658q47 -158 76 -330q26 156 76 330l186 658h371l178 -658q46 -170 76 -330q38 190 80 326l203 662h338l-463 -1516h-324l-276 995l-285 -995h-326z" />
    <glyph glyph-name="X" unicode="X" horiz-adv-x="1480" 
d="M543 758l-488 758h396l127 -199q75 -117 176 -303l303 502h387l-479 -758l479 -758h-393l-101 158q-66 104 -198 346l-326 -504h-389z" />
    <glyph glyph-name="Y" unicode="Y" horiz-adv-x="1396" 
d="M532 575l-512 941h371l254 -492q29 -54 57 -123q4 8 24.5 52t35.5 73l254 490h360l-512 -941v-575h-332v575z" />
    <glyph glyph-name="Z" unicode="Z" horiz-adv-x="1214" 
d="M1163 0h-1112v311l676 897h-655v308h1071v-297l-686 -912h706v-307z" />
    <glyph glyph-name="bracketleft" unicode="[" horiz-adv-x="690" 
d="M444 8h236v-241h-522v2015h522v-242h-236v-1532z" />
    <glyph glyph-name="backslash" unicode="\" horiz-adv-x="905" 
d="M315 1511l590 -1511h-313l-592 1511h315z" />
    <glyph glyph-name="bracketright" unicode="]" horiz-adv-x="690" 
d="M10 -233v241h236v1532h-236v242h522v-2015h-522z" />
    <glyph glyph-name="asciicircum" unicode="^" horiz-adv-x="1097" 
d="M389 819h-266l272 697h307l273 -697h-266l-160 447z" />
    <glyph glyph-name="underscore" unicode="_" horiz-adv-x="1148" 
d="M123 -256v223h903v-223h-903z" />
    <glyph glyph-name="grave" unicode="`" horiz-adv-x="638" 
d="M557 1579h-227l-228 340h283z" />
    <glyph glyph-name="a" unicode="a" horiz-adv-x="1155" 
d="M428 -27q-163 0 -257.5 88.5t-94.5 239.5q0 142 98 226.5t281 97.5l286 22v17q0 75 -44.5 114t-129.5 39q-100 0 -152.5 -37t-52.5 -106h-262q0 173 132 278t352 105q223 0 344 -119.5t121 -339.5v-598h-279l-20 135q-25 -71 -116 -116.5t-206 -45.5zM539 207
q93 0 148.5 45t55.5 131v55l-159 -14q-102 -9 -144.5 -34t-42.5 -75q0 -108 142 -108z" />
    <glyph glyph-name="b" unicode="b" horiz-adv-x="1310" 
d="M416 0h-297v1544h315v-639q46 69 140 111.5t204 42.5q214 0 341.5 -152.5t127.5 -404.5q0 -237 -137 -383t-356 -146q-106 0 -193 43.5t-129 114.5zM436 518q0 -115 69.5 -185.5t180.5 -70.5q112 0 178 70.5t66 185.5t-66 185.5t-178 70.5q-111 0 -180.5 -70.5
t-69.5 -185.5z" />
    <glyph glyph-name="c" unicode="c" horiz-adv-x="1165" 
d="M63 516q0 236 147.5 388.5t377.5 152.5q227 0 368 -116.5t156 -317.5h-317q-34 151 -195 151q-100 0 -159.5 -70t-59.5 -188q0 -123 57 -191.5t158 -68.5q169 0 199 152h317q-15 -194 -158 -314.5t-358 -120.5q-243 0 -388 148.5t-145 394.5z" />
    <glyph glyph-name="d" unicode="d" horiz-adv-x="1310" 
d="M549 -27q-221 0 -353.5 145t-132.5 388q0 247 137.5 399t368.5 152q95 0 179.5 -35t128.5 -92v614h315v-1544h-297l-16 131q-42 -71 -131.5 -114.5t-198.5 -43.5zM625 262q111 0 180 70.5t69 185.5t-69 185.5t-180 70.5q-112 0 -178 -70.5t-66 -185.5t66 -185.5
t178 -70.5z" />
    <glyph glyph-name="e" unicode="e" horiz-adv-x="1177" 
d="M594 -27q-232 0 -381.5 152.5t-149.5 388.5q0 239 146.5 391t378.5 152q241 0 381.5 -147t140.5 -398v-80l-743 -4q13 -101 71 -150t162 -49q89 0 148.5 31t76.5 86h289q-28 -170 -169 -271.5t-351 -101.5zM590 801q-94 0 -147 -43t-72 -135h426q0 82 -56 130t-151 48z
" />
    <glyph glyph-name="f" unicode="f" horiz-adv-x="747" 
d="M23 1024h141v82q0 223 109.5 330.5t310.5 107.5q68 0 141 -12v-270h-88q-90 0 -124 -41t-34 -115v-82h246v-262h-246v-762h-315v762h-141v262z" />
    <glyph glyph-name="g" unicode="g" horiz-adv-x="1296" 
d="M68 530q0 233 137 381t354 148q103 0 183 -36.5t122 -100.5l17 102h297v-958q0 -275 -149.5 -431.5t-412.5 -156.5q-235 0 -383 125.5t-170 343.5h320q4 -86 65.5 -134.5t165.5 -48.5q114 0 181 63.5t67 172.5v133q-46 -56 -128 -88.5t-181 -32.5q-215 0 -350 144
t-135 374zM385 539q0 -110 67 -181t171 -71q107 0 173 69t66 183q0 112 -66 178.5t-175 66.5q-104 0 -170 -68t-66 -177z" />
    <glyph glyph-name="h" unicode="h" horiz-adv-x="1241" 
d="M434 0h-315v1544h317v-626q47 66 130.5 102.5t183.5 36.5q183 0 284 -111.5t101 -312.5v-633h-316v557q0 97 -49 155t-131 58q-94 0 -149.5 -57t-55.5 -152v-561z" />
    <glyph glyph-name="i" unicode="i" horiz-adv-x="552" 
d="M274 1184q-75 0 -127.5 52.5t-52.5 127.5t52.5 126.5t127.5 51.5q74 0 126.5 -51.5t52.5 -126.5t-52.5 -127.5t-126.5 -52.5zM119 0v1024h315v-1024h-315z" />
    <glyph glyph-name="j" unicode="j" horiz-adv-x="552" 
d="M276 1184q-75 0 -127.5 52.5t-52.5 127.5t52.5 126.5t127.5 51.5q74 0 126.5 -51.5t52.5 -126.5t-52.5 -127.5t-126.5 -52.5zM-111 -500l52 279q37 -12 77 -12q57 0 79 31.5t22 101.5v1124h315v-1165q0 -175 -101.5 -279t-283.5 -104q-83 0 -160 24z" />
    <glyph glyph-name="k" unicode="k" horiz-adv-x="1171" 
d="M434 0h-315v1544h315v-889l332 369h395l-385 -406l373 -618h-365l-229 383l-121 -127v-256z" />
    <glyph glyph-name="l" unicode="l" horiz-adv-x="552" 
d="M434 0h-315v1544h315v-1544z" />
    <glyph glyph-name="m" unicode="m" horiz-adv-x="1867" 
d="M434 0h-315v1024h295l20 -106q42 60 119 99.5t180 39.5q214 0 311 -180q40 82 126.5 131t195.5 49q193 0 294 -103.5t101 -283.5v-670h-315v582q0 94 -45 142t-123 48t-129 -51.5t-51 -171.5v-549h-316v582q0 93 -44.5 140.5t-121.5 47.5q-78 0 -130 -51t-52 -170v-549z
" />
    <glyph glyph-name="n" unicode="n" horiz-adv-x="1241" 
d="M434 0h-315v1024h297l20 -106q47 66 130.5 102.5t183.5 36.5q183 0 284 -111.5t101 -312.5v-633h-316v557q0 97 -49 155t-131 58q-94 0 -149.5 -57t-55.5 -152v-561z" />
    <glyph glyph-name="o" unicode="o" horiz-adv-x="1255" 
d="M63 514q0 241 159 391t407 150q246 0 404.5 -150t158.5 -391t-158 -390t-405 -149q-248 0 -407 149t-159 390zM381 516q0 -116 68.5 -187t179.5 -71q109 0 177 71t68 187q0 115 -68 185.5t-177 70.5q-111 0 -179.5 -70.5t-68.5 -185.5z" />
    <glyph glyph-name="p" unicode="p" horiz-adv-x="1310" 
d="M119 -492v1516h297l16 -125q43 71 133.5 114.5t198.5 43.5q217 0 350 -142.5t133 -386.5q0 -248 -128.5 -402.5t-352.5 -154.5q-105 0 -196.5 36t-135.5 95v-594h-315zM436 512q0 -115 69.5 -185.5t180.5 -70.5q112 0 178 70.5t66 185.5t-66 185.5t-178 70.5
q-111 0 -180.5 -70.5t-69.5 -185.5z" />
    <glyph glyph-name="q" unicode="q" horiz-adv-x="1310" 
d="M63 528q0 244 133.5 386.5t350.5 142.5q108 0 198.5 -43.5t133.5 -114.5l16 125h297v-1516h-315v594q-44 -59 -135.5 -95t-196.5 -36q-224 0 -353 154.5t-129 402.5zM381 512q0 -115 66 -185.5t178 -70.5q111 0 180 70.5t69 185.5t-69 185.5t-180 70.5q-112 0 -178 -70.5
t-66 -185.5z" />
    <glyph glyph-name="r" unicode="r" horiz-adv-x="864" 
d="M823 1024v-297h-100q-289 0 -289 -283v-444h-315v1022h297l16 -152q34 78 102.5 123t167.5 45q61 0 121 -14z" />
    <glyph glyph-name="s" unicode="s" horiz-adv-x="983" 
d="M45 324h299q3 -55 43 -85t111 -30t107 23.5t36 64.5q0 61 -92 80l-189 41q-145 32 -212.5 101.5t-67.5 201.5q0 156 119.5 246t308.5 90q179 0 291 -95.5t112 -250.5h-299q0 53 -31 84.5t-87 31.5q-54 0 -85.5 -25t-31.5 -67q0 -66 110 -90l191 -41q131 -29 195.5 -94
t64.5 -184q0 -162 -125.5 -257.5t-327.5 -95.5q-201 0 -320.5 97t-119.5 254z" />
    <glyph glyph-name="t" unicode="t" horiz-adv-x="749" 
d="M532 0h-315v762h-194v262h194v317h315v-317h195v-262h-195v-762z" />
    <glyph glyph-name="u" unicode="u" horiz-adv-x="1232" 
d="M799 1024h315v-1024h-297l-20 115q-47 -63 -134.5 -102.5t-179.5 -39.5q-175 0 -276 109.5t-101 298.5v643h316v-528q0 -126 44.5 -184t141.5 -58q101 0 146 56t45 182v532z" />
    <glyph glyph-name="v" unicode="v" horiz-adv-x="1159" 
d="M410 0l-400 1024h340l125 -358q89 -262 100 -326q18 89 109 326l137 358h328l-428 -1024h-311z" />
    <glyph glyph-name="w" unicode="w" horiz-adv-x="1701" 
d="M350 0l-330 1024h332l94 -334q41 -144 64 -291q19 118 74 291l104 334h324l96 -334q55 -193 70 -291q11 71 71 291l99 334h333l-358 -1024h-293l-98 326q-70 231 -84 331q-18 -97 -92 -338l-99 -319h-307z" />
    <glyph glyph-name="x" unicode="x" horiz-adv-x="1122" 
d="M379 0h-359l345 496l-345 528h365l188 -311l177 311h352l-338 -522l326 -502h-363l-176 295z" />
    <glyph glyph-name="y" unicode="y" horiz-adv-x="1157" 
d="M37 -492v265h174q80 0 120.5 30t71.5 113l19 49l-412 1059h338l223 -657l248 657h328l-520 -1247q-64 -156 -155 -226.5t-226 -70.5q-114 0 -209 28z" />
    <glyph glyph-name="z" unicode="z" horiz-adv-x="1005" 
d="M932 0h-858v262l458 500h-458v262h858v-262l-471 -500h471v-262z" />
    <glyph glyph-name="braceleft" unicode="{" horiz-adv-x="786" 
d="M92 651v246q109 0 168 53t59 156v395q0 128 83 204.5t216 76.5h158v-242h-88q-82 0 -82 -100v-377q0 -117 -51 -186.5t-154 -102.5q103 -33 154 -102.5t51 -186.5v-376q0 -51 22 -76t60 -25h88v-241h-158q-133 0 -216 76t-83 204v395q0 103 -59 156t-168 53z" />
    <glyph glyph-name="bar" unicode="|" horiz-adv-x="720" 
d="M240 -184v1798h241v-1798h-241z" />
    <glyph glyph-name="braceright" unicode="}" horiz-adv-x="786" 
d="M168 -233h-158v241h88q38 0 60 25t22 76v376q0 117 51 186.5t154 102.5q-103 33 -154 102.5t-51 186.5v377q0 100 -82 100h-88v242h158q133 0 216 -76.5t83 -204.5v-395q0 -103 59 -156t168 -53v-246q-109 0 -168 -53t-59 -156v-395q0 -128 -83 -204t-216 -76z" />
    <glyph glyph-name="asciitilde" unicode="~" 
d="M950 834h238q0 -163 -83 -271t-220 -108q-64 0 -125.5 21.5t-100.5 47t-84.5 47t-80.5 21.5q-93 0 -93 -121h-237q0 158 83.5 264.5t219.5 106.5q63 0 124 -21.5t99.5 -47t84 -47t83.5 -21.5q53 0 72.5 34t19.5 95z" />
    <glyph glyph-name="exclamdown" unicode="&#xa1;" horiz-adv-x="716" 
d="M356 1542q75 0 132 -54.5t57 -129.5q0 -76 -56.5 -131.5t-132.5 -55.5q-78 0 -133 55t-55 132q0 75 55 129.5t133 54.5zM225 1063h260q28 -129 46 -324t18 -397v-342h-381v342q0 434 57 721z" />
    <glyph glyph-name="cent" unicode="&#xa2;" horiz-adv-x="1206" 
d="M469 -2v233q-179 41 -282 181.5t-103 345.5q0 198 105 339.5t280 184.5v234h264v-228q175 -29 281 -141t119 -283h-318q-34 152 -194 152q-100 0 -160 -70t-60 -188q0 -123 57 -191.5t158 -68.5q169 0 199 151h318q-13 -165 -121.5 -279t-278.5 -145v-227h-264z" />
    <glyph glyph-name="sterling" unicode="&#xa3;" horiz-adv-x="1382" 
d="M823 0h-774v309q98 0 156.5 62t58.5 168q0 41 -14 102h-193v240h115q-22 90 -22 149q0 143 68.5 260t195.5 185.5t288 68.5q233 0 383 -134t150 -359h-330q-1 100 -59 149t-156 49q-97 0 -159 -59t-62 -154q0 -69 27 -155h432v-240h-359q11 -53 11 -88q0 -178 -129 -244
h317q122 0 170 54.5t51 158.5h320q0 -243 -129 -382.5t-357 -139.5z" />
    <glyph glyph-name="currency" unicode="&#xa4;" horiz-adv-x="1564" 
d="M1239 106l-162 160q-138 -82 -293 -82q-156 0 -297 82l-161 -160l-203 207l162 160q-76 136 -76 285q0 150 76 289l-162 159l203 207l161 -160q141 82 297 82q155 0 293 -82l162 160l203 -207l-160 -157q78 -137 78 -291q0 -153 -78 -287l160 -158zM1071 758
q0 120 -84 204.5t-203 84.5q-121 0 -203.5 -84t-82.5 -205q0 -118 83.5 -201.5t202.5 -83.5q117 0 202 84t85 201z" />
    <glyph glyph-name="yen" unicode="&#xa5;" horiz-adv-x="1425" 
d="M459 799l-418 717h377l293 -568l297 568h376l-419 -717h227v-230h-326v-98h326v-229h-326v-242h-313v242h-326v229h326v98h-326v230h232z" />
    <glyph glyph-name="brokenbar" unicode="&#xa6;" horiz-adv-x="720" 
d="M481 1614v-705h-241v705h241zM240 -184v704h241v-704h-241z" />
    <glyph glyph-name="section" unicode="&#xa7;" horiz-adv-x="1011" 
d="M954 788q0 -87 -47 -160.5t-125 -117.5q133 -66 133 -221q0 -136 -121.5 -226t-306.5 -90q-179 0 -291 95.5t-112 250.5h299q0 -53 31.5 -84.5t87.5 -31.5t88.5 25t32.5 67q0 70 -115 96l-191 45q-260 62 -260 291q0 89 47 163t125 116q-70 36 -101.5 90t-31.5 133
q0 136 121.5 225.5t306.5 89.5q179 0 291.5 -95.5t112.5 -250.5h-299q0 53 -31.5 85t-87.5 32t-88.5 -25t-32.5 -67q0 -68 115 -97l190 -47q137 -34 198.5 -107t61.5 -184zM662 758q0 64 -40 104.5t-116 40.5t-116 -40.5t-40 -104.5q0 -63 40 -103.5t116 -40.5t116 40.5
t40 103.5z" />
    <glyph glyph-name="dieresis" unicode="&#xa8;" horiz-adv-x="933" 
d="M264 1593q-66 0 -112 46.5t-46 113.5q0 65 47 111.5t111 46.5t111 -47.5t47 -110.5q0 -66 -46.5 -113t-111.5 -47zM670 1593q-66 0 -112 46.5t-46 113.5q0 65 47 111.5t111 46.5t110.5 -47.5t46.5 -110.5q0 -66 -46 -113t-111 -47z" />
    <glyph glyph-name="copyright" unicode="&#xa9;" horiz-adv-x="1685" 
d="M844 -27q-157 0 -298.5 62t-243 167t-161 250.5t-59.5 307.5q0 161 59.5 306.5t161 250t243 166t298.5 61.5q209 0 383.5 -104.5t275.5 -284.5t101 -395q0 -161 -59.5 -307t-161 -251t-242.5 -167t-297 -62zM844 158q118 0 223 46.5t180.5 126.5t119.5 192t44 237
q0 168 -74 305.5t-204 216t-289 78.5t-289.5 -79t-205.5 -216.5t-75 -304.5q0 -168 75 -306t205.5 -217t289.5 -79zM455 760q0 173 109 286t278 113q168 0 272.5 -86t114.5 -235h-234q-26 112 -145 112q-72 0 -117 -52t-45 -138q0 -90 43 -141.5t117 -51.5q123 0 147 113
h234q-11 -143 -117 -232.5t-264 -89.5q-179 0 -286 110t-107 292z" />
    <glyph glyph-name="guillemotleft" unicode="&#xab;" horiz-adv-x="1638" 
d="M530 0l-448 512l448 512h412l-448 -512l448 -512h-412zM1145 0l-449 512l449 512h411l-448 -512l448 -512h-411z" />
    <glyph glyph-name="logicalnot" unicode="&#xac;" 
d="M1186 823v-628h-297v362h-778v266h1075z" />
    <glyph glyph-name="registered" unicode="&#xae;" horiz-adv-x="1069" 
d="M537 641q-194 0 -324.5 129.5t-130.5 321.5q0 190 131.5 320t323.5 130q193 0 321.5 -128t128.5 -322t-128.5 -322.5t-321.5 -128.5zM537 727q155 0 256.5 103.5t101.5 261.5t-101.5 261t-256.5 103q-157 0 -260 -103.5t-103 -260.5q0 -158 103 -261.5t260 -103.5z
M440 844h-92v510h213q87 0 139 -41.5t52 -112.5q0 -51 -27.5 -91t-75.5 -60l109 -205h-101l-92 180h-125v-180zM653 1190q0 76 -94 76h-119v-158h119q44 0 69 22.5t25 59.5z" />
    <glyph glyph-name="macron" unicode="&#xaf;" horiz-adv-x="839" 
d="M123 1632v213h594v-213h-594z" />
    <glyph glyph-name="degree" unicode="&#xb0;" horiz-adv-x="700" 
d="M639 1255q0 -124 -82 -206t-207 -82t-207 82t-82 206q0 125 82.5 207t206.5 82t206.5 -82t82.5 -207zM471 1255q0 58 -33.5 93.5t-87.5 35.5q-55 0 -88 -35.5t-33 -93.5q0 -57 33 -92t88 -35q54 0 87.5 34.5t33.5 92.5z" />
    <glyph glyph-name="plusminus" unicode="&#xb1;" 
d="M164 965h381v299h262v-299h381v-263h-381v-301h-262v301h-381v263zM164 0v262h1024v-262h-1024z" />
    <glyph glyph-name="twosuperior" unicode="&#xb2;" horiz-adv-x="753" 
d="M709 676h-648v151l338 285q52 42 74.5 81t22.5 91q0 137 -119 137q-62 0 -95.5 -40t-33.5 -115h-203q6 158 94 249t236 91q152 0 238.5 -82.5t86.5 -227.5q0 -87 -39 -158t-118 -139l-164 -139h330v-184z" />
    <glyph glyph-name="threesuperior" unicode="&#xb3;" horiz-adv-x="743" 
d="M674 1423l-207 -176q104 -22 167.5 -91.5t63.5 -186.5q0 -141 -95.5 -225.5t-237.5 -84.5q-140 0 -234 83.5t-94 234.5h203q0 -64 35.5 -98.5t95.5 -34.5q56 0 90.5 34.5t34.5 92.5q0 57 -36.5 93t-111.5 36h-133v133l207 172h-344v182h596v-164z" />
    <glyph glyph-name="acute" unicode="&#xb4;" horiz-adv-x="638" 
d="M537 1919l-228 -340h-227l172 340h283z" />
    <glyph glyph-name="micro" unicode="&#xb5;" horiz-adv-x="1232" 
d="M424 -492h-318v1516h316v-528q0 -126 44.5 -184t141.5 -58q101 0 146 56t45 182v532h315v-1024h-297l-20 115q-35 -47 -65 -75.5t-75.5 -47.5t-101.5 -19q-108 0 -172 95z" />
    <glyph glyph-name="paragraph" unicode="&#xb6;" horiz-adv-x="1273" 
d="M51 1102q0 189 107.5 301.5t290.5 112.5h335v-1717h-266v887h-69q-184 0 -291 112t-107 304zM1075 -205h-94v1716h94v-1716z" />
    <glyph glyph-name="periodcentered" unicode="&#xb7;" horiz-adv-x="753" 
d="M379 354q-101 0 -174.5 72t-73.5 170q0 101 73.5 173.5t174.5 72.5q98 0 171 -74t73 -172q0 -97 -72.5 -169.5t-171.5 -72.5z" />
    <glyph glyph-name="cedilla" unicode="&#xb8;" horiz-adv-x="569" 
d="M61 -436v131q86 -39 150 -39q58 0 86.5 22.5t28.5 61.5q0 34 -23.5 53t-66.5 19q-52 0 -101 -17l-29 80l103 213l88 -2v-68l-61 -116q30 12 73 12q71 0 124.5 -43t53.5 -131q0 -101 -73.5 -158t-186.5 -57q-90 0 -166 39z" />
    <glyph glyph-name="onesuperior" unicode="&#xb9;" horiz-adv-x="565" 
d="M274 1403h-233v184h438v-911h-205v727z" />
    <glyph glyph-name="guillemotright" unicode="&#xbb;" horiz-adv-x="1638" 
d="M494 0h-412l448 512l-448 512h412l448 -512zM1108 0h-412l449 512l-449 512h412l448 -512z" />
    <glyph glyph-name="onequarter" unicode="&#xbc;" horiz-adv-x="1579" 
d="M225 1356h-196v160h370v-762h-174v602zM1399 1454l-985 -1454h-246l985 1454h246zM1268 139h-367v137l320 486h213v-467h100v-156h-100v-139h-166v139zM1094 295h174v262z" />
    <glyph glyph-name="onehalf" unicode="&#xbd;" horiz-adv-x="1654" 
d="M225 1356h-196v160h370v-762h-174v602zM1399 1454l-985 -1454h-246l985 1454h246zM1610 0h-561v129l251 197q107 85 107 178q0 54 -26 84t-72 30q-51 0 -80 -30t-29 -84h-176q0 120 80 196t207 76t199.5 -70t72.5 -192q0 -164 -164 -293l-80 -63h271v-158z" />
    <glyph glyph-name="threequarters" unicode="&#xbe;" horiz-adv-x="1628" 
d="M37 1006h176q0 -53 28.5 -81t75.5 -28q44 0 71.5 28.5t27.5 75.5q0 45 -29.5 75t-91.5 30h-111v113l160 139h-272v158h499v-142l-163 -147q82 -20 133 -77.5t51 -150.5q0 -118 -80 -189t-199 -71q-117 0 -196.5 70.5t-79.5 196.5zM1448 1454l-985 -1454h-246l985 1454
h246zM1317 139h-367v137l320 486h213v-467h100v-156h-100v-139h-166v139zM1143 295h174v262z" />
    <glyph glyph-name="questiondown" unicode="&#xbf;" horiz-adv-x="1181" 
d="M633 1544q78 0 133 -54.5t55 -129.5q0 -77 -55 -131.5t-133 -54.5q-76 0 -132.5 55.5t-56.5 130.5q0 74 56.5 129t132.5 55zM500 1106h284v-43q0 -57 -14.5 -108.5t-33 -86.5t-53.5 -73.5t-58 -59t-64 -53.5t-62 -52t-47 -49t-37.5 -61t-11.5 -67q0 -88 47.5 -136.5
t135.5 -48.5q93 0 147.5 63t54.5 171h330q0 -235 -150.5 -382t-389.5 -147q-242 0 -378.5 121t-136.5 336q0 64 17.5 121t40.5 95.5t63.5 78t68 61t73.5 52.5q86 58 130 107.5t44 117.5v43z" />
    <glyph glyph-name="Agrave" unicode="&#xc0;" horiz-adv-x="1439" 
d="M838 1620h-228l-227 340h283zM365 0h-347l541 1516h324l538 -1516h-352l-106 319h-490zM678 922l-109 -324h299l-108 324q-36 113 -41 147q-8 -46 -41 -147z" />
    <glyph glyph-name="Aacute" unicode="&#xc1;" horiz-adv-x="1439" 
d="M1065 1960l-227 -340h-228l172 340h283zM365 0h-347l541 1516h324l538 -1516h-352l-106 319h-490zM678 922l-109 -324h299l-108 324q-36 113 -41 147q-8 -46 -41 -147z" />
    <glyph glyph-name="Acircumflex" unicode="&#xc2;" horiz-adv-x="1439" 
d="M608 1620h-237l202 360h304l202 -360h-237l-117 215zM365 0h-347l541 1516h324l538 -1516h-352l-106 319h-490zM678 922l-109 -324h299l-108 324q-36 113 -41 147q-8 -46 -41 -147z" />
    <glyph glyph-name="Atilde" unicode="&#xc3;" horiz-adv-x="1439" 
d="M512 1626l-176 -2q-19 150 40.5 241t172.5 91q51 0 100 -20t81 -43.5t68.5 -43.5t65.5 -20q74 0 74 127h176q17 -163 -42.5 -247.5t-172.5 -84.5q-53 0 -104 20t-83 43.5t-67.5 43.5t-60.5 20q-72 0 -72 -125zM365 0h-347l541 1516h324l538 -1516h-352l-106 319h-490z
M678 922l-109 -324h299l-108 324q-36 113 -41 147q-8 -46 -41 -147z" />
    <glyph glyph-name="Adieresis" unicode="&#xc4;" horiz-adv-x="1439" 
d="M522 1634q-66 0 -111.5 46.5t-45.5 113.5q0 65 46.5 111.5t110.5 46.5t111 -47.5t47 -110.5q0 -66 -46.5 -113t-111.5 -47zM928 1634q-66 0 -112 46.5t-46 113.5q0 64 47 111t111 47t110.5 -47.5t46.5 -110.5q0 -66 -46 -113t-111 -47zM365 0h-347l541 1516h324
l538 -1516h-352l-106 319h-490zM678 922l-109 -324h299l-108 324q-36 113 -41 147q-8 -46 -41 -147z" />
    <glyph glyph-name="Aring" unicode="&#xc5;" horiz-adv-x="1439" 
d="M725 1583q-126 0 -207.5 80.5t-81.5 204.5q0 122 83 204t206 82t206 -82t83 -204t-82.5 -203.5t-206.5 -81.5zM725 1743q55 0 88 35t33 94q0 54 -33.5 88.5t-87.5 34.5t-87.5 -34t-33.5 -89q0 -59 33 -94t88 -35zM365 0h-347l541 1516h324l538 -1516h-352l-106 319h-490z
M678 922l-109 -324h299l-108 324q-36 113 -41 147q-8 -46 -41 -147z" />
    <glyph glyph-name="AE" unicode="&#xc6;" horiz-adv-x="1980" 
d="M8 0l613 1516h1245v-308h-631v-297h559v-290h-559v-314h631v-307h-963v342h-387l-129 -342h-379zM623 621h280v587h-57z" />
    <glyph glyph-name="Ccedilla" unicode="&#xc7;" horiz-adv-x="1591" 
d="M645 -436v131q86 -39 150 -39q58 0 86 22.5t28 61.5q0 34 -23.5 53t-66.5 19q-51 0 -100 -17l-29 80l49 102q-309 23 -487 231t-178 548q0 234 93.5 412t264.5 275t395 97q284 0 474 -151t225 -406h-350q-34 114 -127 176t-230 62q-185 0 -290 -123t-105 -340
q0 -214 106 -338.5t289 -124.5q139 0 236.5 64.5t128.5 177.5h344q-38 -243 -220.5 -395.5t-449.5 -164.5l-39 -75q30 12 74 12q71 0 124.5 -43t53.5 -131q0 -101 -73.5 -158t-186.5 -57q-90 0 -166 39z" />
    <glyph glyph-name="Egrave" unicode="&#xc8;" horiz-adv-x="1234" 
d="M752 1620h-228l-227 340h283zM1120 0h-962v1516h962v-308h-631v-297h560v-290h-560v-314h631v-307z" />
    <glyph glyph-name="Eacute" unicode="&#xc9;" horiz-adv-x="1234" 
d="M979 1960l-227 -340h-228l172 340h283zM1120 0h-962v1516h962v-308h-631v-297h560v-290h-560v-314h631v-307z" />
    <glyph glyph-name="Ecircumflex" unicode="&#xca;" horiz-adv-x="1234" 
d="M522 1620h-237l202 360h304l202 -360h-237l-117 215zM1120 0h-962v1516h962v-308h-631v-297h560v-290h-560v-314h631v-307z" />
    <glyph glyph-name="Edieresis" unicode="&#xcb;" horiz-adv-x="1234" 
d="M436 1634q-66 0 -111.5 46.5t-45.5 113.5q0 65 46.5 111.5t110.5 46.5t111 -47.5t47 -110.5q0 -66 -46.5 -113t-111.5 -47zM842 1634q-66 0 -112 46.5t-46 113.5q0 64 47 111t111 47t110.5 -47.5t46.5 -110.5q0 -66 -46 -113t-111 -47zM1120 0h-962v1516h962v-308h-631
v-297h560v-290h-560v-314h631v-307z" />
    <glyph glyph-name="Igrave" unicode="&#xcc;" horiz-adv-x="647" 
d="M436 1620h-227l-227 340h282zM489 1516v-1516h-331v1516h331z" />
    <glyph glyph-name="Iacute" unicode="&#xcd;" horiz-adv-x="647" 
d="M664 1960l-228 -340h-227l172 340h283zM489 1516v-1516h-331v1516h331z" />
    <glyph glyph-name="Icircumflex" unicode="&#xce;" horiz-adv-x="647" 
d="M207 1620h-238l203 360h303l203 -360h-238l-116 215zM489 1516v-1516h-331v1516h331z" />
    <glyph glyph-name="Idieresis" unicode="&#xcf;" horiz-adv-x="647" 
d="M121 1634q-66 0 -112 46.5t-46 113.5q0 64 46.5 111t111.5 47q64 0 111 -47.5t47 -110.5q0 -66 -46.5 -113t-111.5 -47zM526 1634q-66 0 -111.5 46.5t-45.5 113.5q0 65 46.5 111.5t110.5 46.5t111 -47.5t47 -110.5q0 -66 -46.5 -113t-111.5 -47zM489 1516v-1516h-331
v1516h331z" />
    <glyph glyph-name="Eth" unicode="&#xd0;" horiz-adv-x="1558" 
d="M20 625v268h138v623h573q220 0 391.5 -96t267 -269.5t95.5 -396.5q0 -219 -92.5 -390.5t-260 -267.5t-380.5 -96h-594v625h-138zM786 625h-297v-318h230q196 0 306 118t110 329q0 215 -115.5 334.5t-321.5 119.5h-209v-315h297v-268z" />
    <glyph glyph-name="Ntilde" unicode="&#xd1;" horiz-adv-x="1609" 
d="M602 1626l-176 -2q-19 150 40.5 241t172.5 91q51 0 100 -20t81 -43.5t68.5 -43.5t65.5 -20q74 0 74 127h176q17 -163 -42.5 -247.5t-172.5 -84.5q-53 0 -104 20t-83 43.5t-67.5 43.5t-60.5 20q-72 0 -72 -125zM485 0h-327v1516h327l639 -965v965h328v-1516h-328l-639 963
v-963z" />
    <glyph glyph-name="Ograve" unicode="&#xd2;" horiz-adv-x="1632" 
d="M930 1620h-228l-227 340h283zM1559 760q0 -171 -55 -317.5t-152.5 -249t-236.5 -160.5t-302 -58q-216 0 -384.5 98.5t-261.5 277t-93 407.5t93.5 407.5t262.5 277.5t385 99q163 0 301.5 -57.5t236 -159.5t152 -248t54.5 -317zM1208 760q0 217 -104 340t-287 123
q-184 0 -288.5 -123t-104.5 -340q0 -218 104.5 -341.5t288.5 -123.5q183 0 287 124.5t104 340.5z" />
    <glyph glyph-name="Oacute" unicode="&#xd3;" horiz-adv-x="1632" 
d="M1157 1960l-227 -340h-228l172 340h283zM1559 760q0 -171 -55 -317.5t-152.5 -249t-236.5 -160.5t-302 -58q-216 0 -384.5 98.5t-261.5 277t-93 407.5t93.5 407.5t262.5 277.5t385 99q163 0 301.5 -57.5t236 -159.5t152 -248t54.5 -317zM1208 760q0 217 -104 340
t-287 123q-184 0 -288.5 -123t-104.5 -340q0 -218 104.5 -341.5t288.5 -123.5q183 0 287 124.5t104 340.5z" />
    <glyph glyph-name="Ocircumflex" unicode="&#xd4;" horiz-adv-x="1632" 
d="M700 1620h-237l203 360h303l202 -360h-237l-117 215zM1559 760q0 -171 -55 -317.5t-152.5 -249t-236.5 -160.5t-302 -58q-216 0 -384.5 98.5t-261.5 277t-93 407.5t93.5 407.5t262.5 277.5t385 99q163 0 301.5 -57.5t236 -159.5t152 -248t54.5 -317zM1208 760
q0 217 -104 340t-287 123q-184 0 -288.5 -123t-104.5 -340q0 -218 104.5 -341.5t288.5 -123.5q183 0 287 124.5t104 340.5z" />
    <glyph glyph-name="Otilde" unicode="&#xd5;" horiz-adv-x="1632" 
d="M604 1626l-176 -2q-19 150 40.5 241t172.5 91q51 0 100 -20t81 -43.5t68.5 -43.5t65.5 -20q74 0 74 127h176q17 -163 -42.5 -247.5t-172.5 -84.5q-53 0 -104 20t-83 43.5t-67.5 43.5t-60.5 20q-72 0 -72 -125zM1559 760q0 -171 -55 -317.5t-152.5 -249t-236.5 -160.5
t-302 -58q-216 0 -384.5 98.5t-261.5 277t-93 407.5t93.5 407.5t262.5 277.5t385 99q163 0 301.5 -57.5t236 -159.5t152 -248t54.5 -317zM1208 760q0 217 -104 340t-287 123q-184 0 -288.5 -123t-104.5 -340q0 -218 104.5 -341.5t288.5 -123.5q183 0 287 124.5t104 340.5z
" />
    <glyph glyph-name="Odieresis" unicode="&#xd6;" horiz-adv-x="1632" 
d="M614 1634q-66 0 -111.5 46.5t-45.5 113.5q0 65 46.5 111.5t110.5 46.5t111 -47.5t47 -110.5q0 -66 -46.5 -113t-111.5 -47zM1020 1634q-66 0 -112 46.5t-46 113.5q0 64 47 111t111 47t111 -47.5t47 -110.5q0 -66 -46.5 -113t-111.5 -47zM1559 760q0 -171 -55 -317.5
t-152.5 -249t-236.5 -160.5t-302 -58q-216 0 -384.5 98.5t-261.5 277t-93 407.5t93.5 407.5t262.5 277.5t385 99q163 0 301.5 -57.5t236 -159.5t152 -248t54.5 -317zM1208 760q0 217 -104 340t-287 123q-184 0 -288.5 -123t-104.5 -340q0 -218 104.5 -341.5t288.5 -123.5
q183 0 287 124.5t104 340.5z" />
    <glyph glyph-name="multiply" unicode="&#xd7;" 
d="M365 1188l313 -311l311 311l187 -184l-314 -314l314 -313l-187 -184l-311 313l-316 -316l-186 185l316 315l-314 314z" />
    <glyph glyph-name="Oslash" unicode="&#xd8;" horiz-adv-x="1632" 
d="M1559 760q0 -171 -55 -317.5t-152.5 -249t-236.5 -160.5t-302 -58q-197 0 -360 86l-43 -59h-314l162 215q-184 212 -184 541q0 229 93.5 407.5t262.5 277.5t385 99q208 0 373 -92l51 68h299l-164 -220q185 -213 185 -538zM424 760q0 -148 51 -256l514 684q-75 35 -172 35
q-184 0 -288.5 -123t-104.5 -340zM1208 760q0 149 -49 250l-508 -682q70 -33 166 -33q183 0 287 124.5t104 340.5z" />
    <glyph glyph-name="Ugrave" unicode="&#xd9;" horiz-adv-x="1544" 
d="M885 1620h-228l-227 340h283zM147 569v947h332v-924q0 -142 75.5 -218.5t215.5 -76.5q141 0 218 77.5t77 217.5v924h332v-947q0 -270 -170.5 -432t-456.5 -162q-284 0 -453.5 161.5t-169.5 432.5z" />
    <glyph glyph-name="Uacute" unicode="&#xda;" horiz-adv-x="1544" 
d="M1112 1960l-227 -340h-228l172 340h283zM147 569v947h332v-924q0 -142 75.5 -218.5t215.5 -76.5q141 0 218 77.5t77 217.5v924h332v-947q0 -270 -170.5 -432t-456.5 -162q-284 0 -453.5 161.5t-169.5 432.5z" />
    <glyph glyph-name="Ucircumflex" unicode="&#xdb;" horiz-adv-x="1544" 
d="M655 1620h-237l203 360h303l202 -360h-237l-117 215zM147 569v947h332v-924q0 -142 75.5 -218.5t215.5 -76.5q141 0 218 77.5t77 217.5v924h332v-947q0 -270 -170.5 -432t-456.5 -162q-284 0 -453.5 161.5t-169.5 432.5z" />
    <glyph glyph-name="Udieresis" unicode="&#xdc;" horiz-adv-x="1544" 
d="M569 1634q-66 0 -111.5 46.5t-45.5 113.5q0 65 46.5 111.5t110.5 46.5t111 -47.5t47 -110.5q0 -66 -46.5 -113t-111.5 -47zM975 1634q-66 0 -112 46.5t-46 113.5q0 64 46.5 111t111.5 47q64 0 111 -47.5t47 -110.5q0 -66 -46.5 -113t-111.5 -47zM147 569v947h332v-924
q0 -142 75.5 -218.5t215.5 -76.5q141 0 218 77.5t77 217.5v924h332v-947q0 -270 -170.5 -432t-456.5 -162q-284 0 -453.5 161.5t-169.5 432.5z" />
    <glyph glyph-name="Yacute" unicode="&#xdd;" horiz-adv-x="1396" 
d="M1042 1960l-227 -340h-227l172 340h282zM532 575l-512 941h371l254 -492q29 -54 57 -123q4 8 24.5 52t35.5 73l254 490h360l-512 -941v-575h-332v575z" />
    <glyph glyph-name="Thorn" unicode="&#xde;" horiz-adv-x="1339" 
d="M772 274h-283v-274h-331v1516h331v-271h283q230 0 373 -135.5t143 -349.5t-143 -350t-373 -136zM698 950h-209v-381h209q119 0 179.5 49.5t60.5 141.5t-60.5 141t-179.5 49z" />
    <glyph glyph-name="germandbls" unicode="&#xdf;" horiz-adv-x="1257" 
d="M434 0h-315v1053q0 226 135 358.5t367 132.5q230 0 360.5 -107t130.5 -296q0 -91 -37.5 -165.5t-103.5 -115.5q241 -123 241 -383q0 -218 -144 -347.5t-388 -129.5q-83 0 -148 14v273h142q106 0 163.5 53.5t57.5 151.5q0 106 -68 160.5t-200 54.5h-90v249h90q82 0 127 44
t45 124q0 78 -46.5 120t-129.5 42q-85 0 -137 -55t-52 -144v-1087z" />
    <glyph glyph-name="agrave" unicode="&#xe0;" horiz-adv-x="1155" 
d="M709 1149h-228l-227 340h283zM428 -27q-163 0 -257.5 88.5t-94.5 239.5q0 142 98 226.5t281 97.5l286 22v17q0 75 -44.5 114t-129.5 39q-100 0 -152.5 -37t-52.5 -106h-262q0 173 132 278t352 105q223 0 344 -119.5t121 -339.5v-598h-279l-20 135q-25 -71 -116 -116.5
t-206 -45.5zM539 207q93 0 148.5 45t55.5 131v55l-159 -14q-102 -9 -144.5 -34t-42.5 -75q0 -108 142 -108z" />
    <glyph glyph-name="aacute" unicode="&#xe1;" horiz-adv-x="1155" 
d="M936 1489l-227 -340h-228l172 340h283zM428 -27q-163 0 -257.5 88.5t-94.5 239.5q0 142 98 226.5t281 97.5l286 22v17q0 75 -44.5 114t-129.5 39q-100 0 -152.5 -37t-52.5 -106h-262q0 173 132 278t352 105q223 0 344 -119.5t121 -339.5v-598h-279l-20 135
q-25 -71 -116 -116.5t-206 -45.5zM539 207q93 0 148.5 45t55.5 131v55l-159 -14q-102 -9 -144.5 -34t-42.5 -75q0 -108 142 -108z" />
    <glyph glyph-name="acircumflex" unicode="&#xe2;" horiz-adv-x="1155" 
d="M479 1149h-237l202 360h304l202 -360h-237l-117 215zM428 -27q-163 0 -257.5 88.5t-94.5 239.5q0 142 98 226.5t281 97.5l286 22v17q0 75 -44.5 114t-129.5 39q-100 0 -152.5 -37t-52.5 -106h-262q0 173 132 278t352 105q223 0 344 -119.5t121 -339.5v-598h-279l-20 135
q-25 -71 -116 -116.5t-206 -45.5zM539 207q93 0 148.5 45t55.5 131v55l-159 -14q-102 -9 -144.5 -34t-42.5 -75q0 -108 142 -108z" />
    <glyph glyph-name="atilde" unicode="&#xe3;" horiz-adv-x="1155" 
d="M383 1155l-176 -2q-19 150 40.5 241t172.5 91q51 0 100 -20t81 -43.5t68.5 -43.5t65.5 -20q74 0 74 127h176q17 -163 -42.5 -247.5t-172.5 -84.5q-53 0 -104 20t-83 43.5t-67.5 43.5t-60.5 20q-72 0 -72 -125zM428 -27q-163 0 -257.5 88.5t-94.5 239.5q0 142 98 226.5
t281 97.5l286 22v17q0 75 -44.5 114t-129.5 39q-100 0 -152.5 -37t-52.5 -106h-262q0 173 132 278t352 105q223 0 344 -119.5t121 -339.5v-598h-279l-20 135q-25 -71 -116 -116.5t-206 -45.5zM539 207q93 0 148.5 45t55.5 131v55l-159 -14q-102 -9 -144.5 -34t-42.5 -75
q0 -108 142 -108z" />
    <glyph glyph-name="adieresis" unicode="&#xe4;" horiz-adv-x="1155" 
d="M393 1163q-66 0 -111.5 46.5t-45.5 113.5q0 65 46.5 111.5t110.5 46.5t111 -47.5t47 -110.5q0 -66 -46.5 -113t-111.5 -47zM799 1163q-66 0 -112 46.5t-46 113.5q0 65 46.5 111.5t111.5 46.5q64 0 110.5 -47.5t46.5 -110.5q0 -66 -46 -113t-111 -47zM428 -27
q-163 0 -257.5 88.5t-94.5 239.5q0 142 98 226.5t281 97.5l286 22v17q0 75 -44.5 114t-129.5 39q-100 0 -152.5 -37t-52.5 -106h-262q0 173 132 278t352 105q223 0 344 -119.5t121 -339.5v-598h-279l-20 135q-25 -71 -116 -116.5t-206 -45.5zM539 207q93 0 148.5 45
t55.5 131v55l-159 -14q-102 -9 -144.5 -34t-42.5 -75q0 -108 142 -108z" />
    <glyph glyph-name="aring" unicode="&#xe5;" horiz-adv-x="1155" 
d="M596 1112q-126 0 -207.5 80.5t-81.5 204.5q0 122 83 204t206 82t206 -82t83 -204t-82.5 -203.5t-206.5 -81.5zM596 1272q55 0 88 35t33 94q0 54 -33.5 88.5t-87.5 34.5t-87.5 -34t-33.5 -89q0 -59 33 -94t88 -35zM428 -27q-163 0 -257.5 88.5t-94.5 239.5q0 142 98 226.5
t281 97.5l286 22v17q0 75 -44.5 114t-129.5 39q-100 0 -152.5 -37t-52.5 -106h-262q0 173 132 278t352 105q223 0 344 -119.5t121 -339.5v-598h-279l-20 135q-25 -71 -116 -116.5t-206 -45.5zM539 207q93 0 148.5 45t55.5 131v55l-159 -14q-102 -9 -144.5 -34t-42.5 -75
q0 -108 142 -108z" />
    <glyph glyph-name="ae" unicode="&#xe6;" horiz-adv-x="1837" 
d="M76 301q0 148 102.5 231t276.5 86l286 7v39q0 153 -184 153q-94 0 -144.5 -38t-50.5 -105h-262q0 172 128 277.5t335 105.5q242 0 348 -119q135 119 336 119q245 0 383.5 -149t138.5 -396v-80l-745 -4q33 -199 236 -199q92 0 150.5 32t74.5 85h289q-28 -169 -168.5 -271
t-352.5 -102q-129 0 -233 51t-172 144q-58 -97 -160.5 -146t-236.5 -49q-179 0 -277 88t-98 240zM1249 801q-186 0 -225 -180h432q0 79 -54 129.5t-153 50.5zM397 315q0 -52 37.5 -80t104.5 -28q97 0 150.5 47.5t53.5 128.5v49l-180 -6q-90 -3 -128 -27t-38 -84z" />
    <glyph glyph-name="ccedilla" unicode="&#xe7;" horiz-adv-x="1165" 
d="M63 516q0 236 147.5 388.5t377.5 152.5q227 0 368 -116.5t156 -317.5h-317q-34 151 -195 151q-100 0 -159.5 -70t-59.5 -188q0 -123 57 -191.5t158 -68.5q169 0 199 152h317q-13 -183 -143 -302t-328 -131l-39 -73q30 12 74 12q71 0 124.5 -43t53.5 -131
q0 -101 -73.5 -158t-186.5 -57q-90 0 -166 39v131q86 -39 150 -39q58 0 86 22.5t28 61.5q0 34 -23.5 53t-66.5 19q-51 0 -100 -17l-29 80l49 102q-211 23 -335 168.5t-124 370.5z" />
    <glyph glyph-name="egrave" unicode="&#xe8;" horiz-adv-x="1177" 
d="M707 1149h-228l-227 340h283zM594 -27q-232 0 -381.5 152.5t-149.5 388.5q0 239 146.5 391t378.5 152q241 0 381.5 -147t140.5 -398v-80l-743 -4q13 -101 71 -150t162 -49q89 0 148.5 31t76.5 86h289q-28 -170 -169 -271.5t-351 -101.5zM590 801q-94 0 -147 -43t-72 -135
h426q0 82 -56 130t-151 48z" />
    <glyph glyph-name="eacute" unicode="&#xe9;" horiz-adv-x="1177" 
d="M934 1489l-227 -340h-228l172 340h283zM594 -27q-232 0 -381.5 152.5t-149.5 388.5q0 239 146.5 391t378.5 152q241 0 381.5 -147t140.5 -398v-80l-743 -4q13 -101 71 -150t162 -49q89 0 148.5 31t76.5 86h289q-28 -170 -169 -271.5t-351 -101.5zM590 801q-94 0 -147 -43
t-72 -135h426q0 82 -56 130t-151 48z" />
    <glyph glyph-name="ecircumflex" unicode="&#xea;" horiz-adv-x="1177" 
d="M477 1149h-237l202 360h303l203 -360h-237l-117 215zM594 -27q-232 0 -381.5 152.5t-149.5 388.5q0 239 146.5 391t378.5 152q241 0 381.5 -147t140.5 -398v-80l-743 -4q13 -101 71 -150t162 -49q89 0 148.5 31t76.5 86h289q-28 -170 -169 -271.5t-351 -101.5zM590 801
q-94 0 -147 -43t-72 -135h426q0 82 -56 130t-151 48z" />
    <glyph glyph-name="edieresis" unicode="&#xeb;" horiz-adv-x="1177" 
d="M391 1163q-66 0 -112 46.5t-46 113.5q0 65 46.5 111.5t111.5 46.5q64 0 111 -47.5t47 -110.5q0 -66 -46.5 -113t-111.5 -47zM797 1163q-66 0 -112 46.5t-46 113.5q0 65 46.5 111.5t111.5 46.5q64 0 110.5 -47.5t46.5 -110.5q0 -66 -46 -113t-111 -47zM594 -27
q-232 0 -381.5 152.5t-149.5 388.5q0 239 146.5 391t378.5 152q241 0 381.5 -147t140.5 -398v-80l-743 -4q13 -101 71 -150t162 -49q89 0 148.5 31t76.5 86h289q-28 -170 -169 -271.5t-351 -101.5zM590 801q-94 0 -147 -43t-72 -135h426q0 82 -56 130t-151 48z" />
    <glyph glyph-name="igrave" unicode="&#xec;" horiz-adv-x="552" 
d="M391 1149h-227l-227 340h282zM119 0v1024h315v-1024h-315z" />
    <glyph glyph-name="iacute" unicode="&#xed;" horiz-adv-x="552" 
d="M618 1489l-227 -340h-227l172 340h282zM119 0v1024h315v-1024h-315z" />
    <glyph glyph-name="icircumflex" unicode="&#xee;" horiz-adv-x="552" 
d="M162 1149h-238l203 360h303l203 -360h-238l-116 215zM119 0v1024h315v-1024h-315z" />
    <glyph glyph-name="idieresis" unicode="&#xef;" horiz-adv-x="552" 
d="M76 1163q-66 0 -112 46.5t-46 113.5q0 65 47 111.5t111 46.5t110.5 -47.5t46.5 -110.5q0 -66 -46 -113t-111 -47zM481 1163q-66 0 -111.5 46.5t-45.5 113.5q0 65 46.5 111.5t110.5 46.5t111 -47.5t47 -110.5q0 -66 -46.5 -113t-111.5 -47zM119 0v1024h315v-1024h-315z
" />
    <glyph glyph-name="eth" unicode="&#xf0;" horiz-adv-x="1241" 
d="M63 502q0 150 72 267t189 178t256 61q142 0 225 -56q-54 115 -135 244l-267 -92l-63 170l223 76q-78 106 -164 194h357q45 -48 86 -98l149 51l64 -170l-103 -35q226 -357 226 -723q0 -147 -43.5 -262.5t-120 -187.5t-176 -109t-215.5 -37q-255 0 -407.5 146.5
t-152.5 382.5zM381 489q0 -99 61.5 -166t175.5 -67q113 0 174.5 65t61.5 164q0 103 -61.5 171.5t-176.5 68.5q-113 0 -174 -67.5t-61 -168.5z" />
    <glyph glyph-name="ntilde" unicode="&#xf1;" horiz-adv-x="1241" 
d="M434 1155l-176 -2q-19 150 40.5 241t172.5 91q51 0 100 -20t81 -43.5t68.5 -43.5t65.5 -20q74 0 74 127h176q17 -163 -42.5 -247.5t-172.5 -84.5q-53 0 -104 20t-83 43.5t-67.5 43.5t-60.5 20q-72 0 -72 -125zM434 0h-315v1024h297l20 -106q47 66 130.5 102.5t183.5 36.5
q183 0 284 -111.5t101 -312.5v-633h-316v557q0 97 -49 155t-131 58q-94 0 -149.5 -57t-55.5 -152v-561z" />
    <glyph glyph-name="ograve" unicode="&#xf2;" horiz-adv-x="1255" 
d="M741 1149h-227l-227 340h282zM63 514q0 241 159 391t407 150q246 0 404.5 -150t158.5 -391t-158 -390t-405 -149q-248 0 -407 149t-159 390zM381 516q0 -116 68.5 -187t179.5 -71q109 0 177 71t68 187q0 115 -68 185.5t-177 70.5q-111 0 -179.5 -70.5t-68.5 -185.5z" />
    <glyph glyph-name="oacute" unicode="&#xf3;" horiz-adv-x="1255" 
d="M969 1489l-228 -340h-227l172 340h283zM63 514q0 241 159 391t407 150q246 0 404.5 -150t158.5 -391t-158 -390t-405 -149q-248 0 -407 149t-159 390zM381 516q0 -116 68.5 -187t179.5 -71q109 0 177 71t68 187q0 115 -68 185.5t-177 70.5q-111 0 -179.5 -70.5
t-68.5 -185.5z" />
    <glyph glyph-name="ocircumflex" unicode="&#xf4;" horiz-adv-x="1255" 
d="M512 1149h-238l203 360h303l203 -360h-238l-116 215zM63 514q0 241 159 391t407 150q246 0 404.5 -150t158.5 -391t-158 -390t-405 -149q-248 0 -407 149t-159 390zM381 516q0 -116 68.5 -187t179.5 -71q109 0 177 71t68 187q0 115 -68 185.5t-177 70.5
q-111 0 -179.5 -70.5t-68.5 -185.5z" />
    <glyph glyph-name="otilde" unicode="&#xf5;" horiz-adv-x="1255" 
d="M416 1155l-176 -2q-19 150 40.5 241t172.5 91q51 0 100 -20t81 -43.5t68.5 -43.5t65.5 -20q74 0 74 127h176q17 -163 -42.5 -247.5t-172.5 -84.5q-53 0 -104 20t-83.5 43.5t-68 43.5t-60.5 20q-71 0 -71 -125zM63 514q0 241 159 391t407 150q246 0 404.5 -150t158.5 -391
t-158 -390t-405 -149q-248 0 -407 149t-159 390zM381 516q0 -116 68.5 -187t179.5 -71q109 0 177 71t68 187q0 115 -68 185.5t-177 70.5q-111 0 -179.5 -70.5t-68.5 -185.5z" />
    <glyph glyph-name="odieresis" unicode="&#xf6;" horiz-adv-x="1255" 
d="M426 1163q-66 0 -112 46.5t-46 113.5q0 65 47 111.5t111 46.5t111 -47.5t47 -110.5q0 -66 -46.5 -113t-111.5 -47zM831 1163q-66 0 -111.5 46.5t-45.5 113.5q0 65 46.5 111.5t110.5 46.5t111 -47.5t47 -110.5q0 -66 -46.5 -113t-111.5 -47zM63 514q0 241 159 391t407 150
q246 0 404.5 -150t158.5 -391t-158 -390t-405 -149q-248 0 -407 149t-159 390zM381 516q0 -116 68.5 -187t179.5 -71q109 0 177 71t68 187q0 115 -68 185.5t-177 70.5q-111 0 -179.5 -70.5t-68.5 -185.5z" />
    <glyph glyph-name="divide" unicode="&#xf7;" 
d="M678 844q-70 0 -121 49t-51 117q0 69 50.5 118.5t121.5 49.5q67 0 117.5 -50t50.5 -118q0 -67 -50.5 -116.5t-117.5 -49.5zM164 758h1024v-262h-1024v262zM678 74q-70 0 -121 50t-51 118q0 69 50.5 118.5t121.5 49.5q67 0 117.5 -50t50.5 -118q0 -67 -51 -117.5
t-117 -50.5z" />
    <glyph glyph-name="oslash" unicode="&#xf8;" horiz-adv-x="1255" 
d="M63 514q0 241 159 391t407 150q90 0 190 -27l58 92h268l-125 -202q83 -73 127.5 -176t44.5 -228q0 -241 -158 -390t-405 -149q-84 0 -174 23l-60 -98h-282l129 206q-85 72 -132 176.5t-47 231.5zM381 516q0 -73 33 -137l243 391q-8 2 -28 2q-111 0 -179.5 -70.5
t-68.5 -185.5zM874 516q0 70 -24 123l-234 -381h13q109 0 177 71t68 187z" />
    <glyph glyph-name="ugrave" unicode="&#xf9;" horiz-adv-x="1232" 
d="M723 1149h-227l-228 340h283zM799 1024h315v-1024h-297l-20 115q-47 -63 -134.5 -102.5t-179.5 -39.5q-175 0 -276 109.5t-101 298.5v643h316v-528q0 -126 44.5 -184t141.5 -58q101 0 146 56t45 182v532z" />
    <glyph glyph-name="uacute" unicode="&#xfa;" horiz-adv-x="1232" 
d="M950 1489l-227 -340h-227l172 340h282zM799 1024h315v-1024h-297l-20 115q-47 -63 -134.5 -102.5t-179.5 -39.5q-175 0 -276 109.5t-101 298.5v643h316v-528q0 -126 44.5 -184t141.5 -58q101 0 146 56t45 182v532z" />
    <glyph glyph-name="ucircumflex" unicode="&#xfb;" horiz-adv-x="1232" 
d="M494 1149h-238l203 360h303l203 -360h-238l-117 215zM799 1024h315v-1024h-297l-20 115q-47 -63 -134.5 -102.5t-179.5 -39.5q-175 0 -276 109.5t-101 298.5v643h316v-528q0 -126 44.5 -184t141.5 -58q101 0 146 56t45 182v532z" />
    <glyph glyph-name="udieresis" unicode="&#xfc;" horiz-adv-x="1232" 
d="M408 1163q-66 0 -112 46.5t-46 113.5q0 65 47 111.5t111 46.5t110.5 -47.5t46.5 -110.5q0 -66 -46 -113t-111 -47zM813 1163q-66 0 -112 46.5t-46 113.5q0 65 46.5 111.5t111.5 46.5q64 0 111 -47.5t47 -110.5q0 -66 -46.5 -113t-111.5 -47zM799 1024h315v-1024h-297
l-20 115q-47 -63 -134.5 -102.5t-179.5 -39.5q-175 0 -276 109.5t-101 298.5v643h316v-528q0 -126 44.5 -184t141.5 -58q101 0 146 56t45 182v532z" />
    <glyph glyph-name="yacute" unicode="&#xfd;" horiz-adv-x="1157" 
d="M936 1489l-227 -340h-228l172 340h283zM37 -492v265h174q80 0 120.5 30t71.5 113l19 49l-412 1059h338l223 -657l248 657h328l-520 -1247q-64 -156 -155 -226.5t-226 -70.5q-114 0 -209 28z" />
    <glyph glyph-name="thorn" unicode="&#xfe;" horiz-adv-x="1310" 
d="M1247 524q0 -248 -128 -400.5t-353 -152.5q-105 0 -196.5 36t-135.5 95v-594h-315v2036h315v-639q46 69 140 111.5t204 42.5q213 0 341 -145.5t128 -389.5zM930 518q0 115 -66 185.5t-178 70.5q-111 0 -180.5 -70.5t-69.5 -185.5q0 -116 70 -189t180 -73q111 0 177.5 73
t66.5 189z" />
    <glyph glyph-name="ydieresis" unicode="&#xff;" horiz-adv-x="1157" 
d="M393 1163q-66 0 -111.5 46.5t-45.5 113.5q0 65 46.5 111.5t110.5 46.5t111 -47.5t47 -110.5q0 -66 -46.5 -113t-111.5 -47zM799 1163q-66 0 -112 46.5t-46 113.5q0 65 46.5 111.5t111.5 46.5q64 0 110.5 -47.5t46.5 -110.5q0 -66 -46 -113t-111 -47zM37 -492v265h174
q80 0 120.5 30t71.5 113l19 49l-412 1059h338l223 -657l248 657h328l-520 -1247q-64 -156 -155 -226.5t-226 -70.5q-114 0 -209 28z" />
    <glyph glyph-name="Amacron" unicode="&#x100;" horiz-adv-x="1439" 
d="M428 1673v213h594v-213h-594zM365 0h-347l541 1516h324l538 -1516h-352l-106 319h-490zM678 922l-109 -324h299l-108 324q-36 113 -41 147q-8 -46 -41 -147z" />
    <glyph glyph-name="amacron" unicode="&#x101;" horiz-adv-x="1155" 
d="M299 1202v213h594v-213h-594zM428 -27q-163 0 -257.5 88.5t-94.5 239.5q0 142 98 226.5t281 97.5l286 22v17q0 75 -44.5 114t-129.5 39q-100 0 -152.5 -37t-52.5 -106h-262q0 173 132 278t352 105q223 0 344 -119.5t121 -339.5v-598h-279l-20 135q-25 -71 -116 -116.5
t-206 -45.5zM539 207q93 0 148.5 45t55.5 131v55l-159 -14q-102 -9 -144.5 -34t-42.5 -75q0 -108 142 -108z" />
    <glyph glyph-name="Abreve" unicode="&#x102;" horiz-adv-x="1439" 
d="M866 1964h221q0 -167 -98 -266t-262 -99q-169 0 -267 98t-98 267h224q0 -77 37 -118.5t104 -41.5q66 0 102.5 42.5t36.5 117.5zM365 0h-347l541 1516h324l538 -1516h-352l-106 319h-490zM678 922l-109 -324h299l-108 324q-36 113 -41 147q-8 -46 -41 -147z" />
    <glyph glyph-name="abreve" unicode="&#x103;" horiz-adv-x="1155" 
d="M737 1493h221q0 -167 -98 -266t-262 -99q-169 0 -267 98t-98 267h224q0 -77 37 -118.5t104 -41.5q66 0 102.5 42.5t36.5 117.5zM428 -27q-163 0 -257.5 88.5t-94.5 239.5q0 142 98 226.5t281 97.5l286 22v17q0 75 -44.5 114t-129.5 39q-100 0 -152.5 -37t-52.5 -106h-262
q0 173 132 278t352 105q223 0 344 -119.5t121 -339.5v-598h-279l-20 135q-25 -71 -116 -116.5t-206 -45.5zM539 207q93 0 148.5 45t55.5 131v55l-159 -14q-102 -9 -144.5 -34t-42.5 -75q0 -108 142 -108z" />
    <glyph glyph-name="Aogonek" unicode="&#x104;" horiz-adv-x="1439" 
d="M365 0h-347l541 1516h324l538 -1516h-2q-81 -28 -122.5 -73.5t-41.5 -92.5q0 -35 23.5 -58.5t62.5 -23.5q29 0 64 15v-201q-53 -23 -121 -23q-106 0 -170.5 63.5t-64.5 155.5q0 75 46.5 139.5t137.5 98.5h-164l-106 319h-490zM678 922l-109 -324h299l-108 324
q-36 113 -41 147q-8 -46 -41 -147z" />
    <glyph glyph-name="aogonek" unicode="&#x105;" horiz-adv-x="1155" 
d="M428 -27q-163 0 -257.5 88.5t-94.5 239.5q0 142 98 226.5t281 97.5l286 22v17q0 75 -44.5 114t-129.5 39q-100 0 -152.5 -37t-52.5 -106h-262q0 173 132 278t352 105q223 0 344 -119.5t121 -339.5v-598h-2q-81 -28 -122.5 -73.5t-41.5 -92.5q0 -35 23.5 -58.5t62.5 -23.5
q28 0 63 15v-201q-53 -23 -121 -23q-106 0 -170.5 63.5t-64.5 155.5q0 75 46.5 139.5t137.5 98.5h-90l-20 135q-25 -71 -116 -116.5t-206 -45.5zM539 207q93 0 148.5 45t55.5 131v55l-159 -14q-102 -9 -144.5 -34t-42.5 -75q0 -108 142 -108z" />
    <glyph glyph-name="Cacute" unicode="&#x106;" horiz-adv-x="1591" 
d="M1163 1960l-227 -340h-227l172 340h282zM813 -25q-341 0 -540 210.5t-199 570.5q0 234 93.5 412t264.5 275t395 97q284 0 474 -151t225 -406h-350q-34 114 -127 176t-230 62q-185 0 -290 -123t-105 -340q0 -214 106 -338.5t289 -124.5q139 0 236.5 64.5t128.5 177.5h344
q-40 -254 -235.5 -408t-479.5 -154z" />
    <glyph glyph-name="cacute" unicode="&#x107;" horiz-adv-x="1165" 
d="M930 1489l-228 -340h-227l172 340h283zM63 516q0 236 147.5 388.5t377.5 152.5q227 0 368 -116.5t156 -317.5h-317q-34 151 -195 151q-100 0 -159.5 -70t-59.5 -188q0 -123 57 -191.5t158 -68.5q169 0 199 152h317q-15 -194 -158 -314.5t-358 -120.5q-243 0 -388 148.5
t-145 394.5z" />
    <glyph glyph-name="Ccircumflex" unicode="&#x108;" horiz-adv-x="1591" 
d="M707 1620h-238l203 360h303l203 -360h-238l-117 215zM813 -25q-341 0 -540 210.5t-199 570.5q0 234 93.5 412t264.5 275t395 97q284 0 474 -151t225 -406h-350q-34 114 -127 176t-230 62q-185 0 -290 -123t-105 -340q0 -214 106 -338.5t289 -124.5q139 0 236.5 64.5
t128.5 177.5h344q-40 -254 -235.5 -408t-479.5 -154z" />
    <glyph glyph-name="ccircumflex" unicode="&#x109;" horiz-adv-x="1165" 
d="M473 1149h-237l202 360h303l203 -360h-237l-117 215zM63 516q0 236 147.5 388.5t377.5 152.5q227 0 368 -116.5t156 -317.5h-317q-34 151 -195 151q-100 0 -159.5 -70t-59.5 -188q0 -123 57 -191.5t158 -68.5q169 0 199 152h317q-15 -194 -158 -314.5t-358 -120.5
q-243 0 -388 148.5t-145 394.5z" />
    <glyph glyph-name="Cdotaccent" unicode="&#x10a;" horiz-adv-x="1591" 
d="M821 1634q-69 0 -117.5 49t-48.5 119q0 69 49 118.5t117 49.5q69 0 118.5 -50t49.5 -118q0 -69 -49.5 -118.5t-118.5 -49.5zM813 -25q-341 0 -540 210.5t-199 570.5q0 234 93.5 412t264.5 275t395 97q284 0 474 -151t225 -406h-350q-34 114 -127 176t-230 62
q-185 0 -290 -123t-105 -340q0 -214 106 -338.5t289 -124.5q139 0 236.5 64.5t128.5 177.5h344q-40 -254 -235.5 -408t-479.5 -154z" />
    <glyph glyph-name="cdotaccent" unicode="&#x10b;" horiz-adv-x="1165" 
d="M588 1163q-69 0 -117.5 49t-48.5 119q0 69 49 118.5t117 49.5q69 0 118.5 -50t49.5 -118q0 -69 -49.5 -118.5t-118.5 -49.5zM63 516q0 236 147.5 388.5t377.5 152.5q227 0 368 -116.5t156 -317.5h-317q-34 151 -195 151q-100 0 -159.5 -70t-59.5 -188q0 -123 57 -191.5
t158 -68.5q169 0 199 152h317q-15 -194 -158 -314.5t-358 -120.5q-243 0 -388 148.5t-145 394.5z" />
    <glyph glyph-name="Ccaron" unicode="&#x10c;" horiz-adv-x="1591" 
d="M672 1620l-203 360h238l116 -215l117 215h238l-203 -360h-303zM813 -25q-341 0 -540 210.5t-199 570.5q0 234 93.5 412t264.5 275t395 97q284 0 474 -151t225 -406h-350q-34 114 -127 176t-230 62q-185 0 -290 -123t-105 -340q0 -214 106 -338.5t289 -124.5
q139 0 236.5 64.5t128.5 177.5h344q-40 -254 -235.5 -408t-479.5 -154z" />
    <glyph glyph-name="ccaron" unicode="&#x10d;" horiz-adv-x="1165" 
d="M438 1149l-202 360h237l117 -215l117 215h237l-203 -360h-303zM63 516q0 236 147.5 388.5t377.5 152.5q227 0 368 -116.5t156 -317.5h-317q-34 151 -195 151q-100 0 -159.5 -70t-59.5 -188q0 -123 57 -191.5t158 -68.5q169 0 199 152h317q-15 -194 -158 -314.5
t-358 -120.5q-243 0 -388 148.5t-145 394.5z" />
    <glyph glyph-name="Dcaron" unicode="&#x10e;" horiz-adv-x="1558" 
d="M532 1620l-202 360h237l117 -215l117 215h237l-202 -360h-304zM752 0h-594v1516h573q220 0 391.5 -96t267 -269.5t95.5 -396.5q0 -219 -92.5 -390.5t-260 -267.5t-380.5 -96zM698 1208h-209v-901h230q196 0 306 118t110 329q0 215 -115.5 334.5t-321.5 119.5z" />
    <glyph glyph-name="dcaron" unicode="&#x10f;" horiz-adv-x="1310" 
d="M549 -27q-221 0 -353.5 145t-132.5 388q0 247 137.5 399t368.5 152q95 0 179.5 -35t128.5 -92v614h315v-1544h-297l-16 131q-42 -71 -131.5 -114.5t-198.5 -43.5zM1288 1143v401h252l-65 -401h-187zM625 262q111 0 180 70.5t69 185.5t-69 185.5t-180 70.5
q-112 0 -178 -70.5t-66 -185.5t66 -185.5t178 -70.5z" />
    <glyph glyph-name="Dcroat" unicode="&#x110;" horiz-adv-x="1558" 
d="M20 625v268h138v623h573q220 0 391.5 -96t267 -269.5t95.5 -396.5q0 -219 -92.5 -390.5t-260 -267.5t-380.5 -96h-594v625h-138zM786 625h-297v-318h230q196 0 306 118t110 329q0 215 -115.5 334.5t-321.5 119.5h-209v-315h297v-268z" />
    <glyph glyph-name="dcroat" unicode="&#x111;" horiz-adv-x="1310" 
d="M549 -27q-221 0 -353.5 145t-132.5 388q0 247 137.5 399t368.5 152q95 0 179.5 -35t128.5 -92v252h-318v182h318v180h315v-180h133v-182h-133v-1182h-297l-16 131q-42 -71 -131.5 -114.5t-198.5 -43.5zM625 262q111 0 180 70.5t69 185.5t-69 185.5t-180 70.5
q-112 0 -178 -70.5t-66 -185.5t66 -185.5t178 -70.5z" />
    <glyph glyph-name="Emacron" unicode="&#x112;" horiz-adv-x="1234" 
d="M342 1673v213h594v-213h-594zM1120 0h-962v1516h962v-308h-631v-297h560v-290h-560v-314h631v-307z" />
    <glyph glyph-name="emacron" unicode="&#x113;" horiz-adv-x="1177" 
d="M297 1202v213h594v-213h-594zM594 -27q-232 0 -381.5 152.5t-149.5 388.5q0 239 146.5 391t378.5 152q241 0 381.5 -147t140.5 -398v-80l-743 -4q13 -101 71 -150t162 -49q89 0 148.5 31t76.5 86h289q-28 -170 -169 -271.5t-351 -101.5zM590 801q-94 0 -147 -43t-72 -135
h426q0 82 -56 130t-151 48z" />
    <glyph glyph-name="Ebreve" unicode="&#x114;" horiz-adv-x="1234" 
d="M780 1964h221q0 -167 -98 -266t-262 -99q-169 0 -267 98t-98 267h224q0 -77 37 -118.5t104 -41.5q66 0 102.5 42.5t36.5 117.5zM1120 0h-962v1516h962v-308h-631v-297h560v-290h-560v-314h631v-307z" />
    <glyph glyph-name="ebreve" unicode="&#x115;" horiz-adv-x="1177" 
d="M735 1493h221q0 -167 -98 -266t-262 -99q-169 0 -267 98t-98 267h224q0 -77 37 -118.5t104 -41.5q66 0 102.5 42.5t36.5 117.5zM594 -27q-232 0 -381.5 152.5t-149.5 388.5q0 239 146.5 391t378.5 152q241 0 381.5 -147t140.5 -398v-80l-743 -4q13 -101 71 -150t162 -49
q89 0 148.5 31t76.5 86h289q-28 -170 -169 -271.5t-351 -101.5zM590 801q-94 0 -147 -43t-72 -135h426q0 82 -56 130t-151 48z" />
    <glyph glyph-name="Edotaccent" unicode="&#x116;" horiz-adv-x="1234" 
d="M637 1634q-69 0 -117.5 49t-48.5 119q0 69 49 118.5t117 49.5q69 0 118.5 -50t49.5 -118q0 -69 -49.5 -118.5t-118.5 -49.5zM1120 0h-962v1516h962v-308h-631v-297h560v-290h-560v-314h631v-307z" />
    <glyph glyph-name="edotaccent" unicode="&#x117;" horiz-adv-x="1177" 
d="M592 1163q-69 0 -117.5 49t-48.5 119q0 69 49 118.5t117 49.5q69 0 118.5 -50t49.5 -118q0 -69 -49.5 -118.5t-118.5 -49.5zM594 -27q-232 0 -381.5 152.5t-149.5 388.5q0 239 146.5 391t378.5 152q241 0 381.5 -147t140.5 -398v-80l-743 -4q13 -101 71 -150t162 -49
q89 0 148.5 31t76.5 86h289q-28 -170 -169 -271.5t-351 -101.5zM590 801q-94 0 -147 -43t-72 -135h426q0 82 -56 130t-151 48z" />
    <glyph glyph-name="Eogonek" unicode="&#x118;" horiz-adv-x="1234" 
d="M932 0h-774v1516h962v-308h-631v-297h560v-290h-560v-314h631v-307h-2q-81 -28 -122.5 -73.5t-41.5 -92.5q0 -35 23.5 -58.5t62.5 -23.5q30 0 64 15v-201q-53 -23 -121 -23q-106 0 -170.5 63.5t-64.5 155.5q0 75 46.5 139.5t137.5 98.5z" />
    <glyph glyph-name="eogonek" unicode="&#x119;" horiz-adv-x="1177" 
d="M774 -434q-53 -23 -121 -23q-106 0 -170.5 63.5t-64.5 155.5q0 63 33 119.5t98 93.5q-214 15 -350 165t-136 374q0 239 146.5 391t378.5 152q241 0 381.5 -147t140.5 -398v-80l-743 -4q13 -101 71 -150t162 -49q89 0 148.5 31t76.5 86h289q-22 -128 -108.5 -218.5
t-221.5 -129.5q-80 -28 -119.5 -72.5t-39.5 -91.5q0 -35 23.5 -58.5t62.5 -23.5q29 0 63 15v-201zM590 801q-94 0 -147 -43t-72 -135h426q0 82 -56 130t-151 48z" />
    <glyph glyph-name="Ecaron" unicode="&#x11a;" horiz-adv-x="1234" 
d="M487 1620l-202 360h237l117 -215l117 215h237l-202 -360h-304zM1120 0h-962v1516h962v-308h-631v-297h560v-290h-560v-314h631v-307z" />
    <glyph glyph-name="ecaron" unicode="&#x11b;" horiz-adv-x="1177" 
d="M442 1149l-202 360h237l117 -215l117 215h237l-203 -360h-303zM594 -27q-232 0 -381.5 152.5t-149.5 388.5q0 239 146.5 391t378.5 152q241 0 381.5 -147t140.5 -398v-80l-743 -4q13 -101 71 -150t162 -49q89 0 148.5 31t76.5 86h289q-28 -170 -169 -271.5t-351 -101.5z
M590 801q-94 0 -147 -43t-72 -135h426q0 82 -56 130t-151 48z" />
    <glyph glyph-name="Gcircumflex" unicode="&#x11c;" horiz-adv-x="1640" 
d="M729 1620h-237l202 360h303l203 -360h-237l-117 215zM840 1229q-201 0 -308.5 -130.5t-107.5 -355.5q0 -222 113 -339t301 -117q177 0 270 82t104 211h-401v290h713v-870h-285l-18 137q-62 -73 -177 -116.5t-249 -43.5q-319 0 -520 215t-201 562q0 227 95 405.5
t271.5 279.5t407.5 101q274 0 462 -148.5t214 -392.5h-348q-28 115 -119 172.5t-217 57.5z" />
    <glyph glyph-name="gcircumflex" unicode="&#x11d;" horiz-adv-x="1296" 
d="M475 1149h-237l202 360h303l203 -360h-237l-117 215zM68 530q0 233 137 381t354 148q103 0 183 -36.5t122 -100.5l17 102h297v-958q0 -275 -149.5 -431.5t-412.5 -156.5q-235 0 -383 125.5t-170 343.5h320q4 -86 65.5 -134.5t165.5 -48.5q114 0 181 63.5t67 172.5v133
q-46 -56 -128 -88.5t-181 -32.5q-215 0 -350 144t-135 374zM385 539q0 -110 67 -181t171 -71q107 0 173 69t66 183q0 112 -66 178.5t-175 66.5q-104 0 -170 -68t-66 -177z" />
    <glyph glyph-name="Gbreve" unicode="&#x11e;" horiz-adv-x="1640" 
d="M987 1964h221q0 -167 -98 -266t-262 -99q-169 0 -267 98t-98 267h224q0 -77 37 -118.5t104 -41.5q66 0 102.5 42.5t36.5 117.5zM840 1229q-201 0 -308.5 -130.5t-107.5 -355.5q0 -222 113 -339t301 -117q177 0 270 82t104 211h-401v290h713v-870h-285l-18 137
q-62 -73 -177 -116.5t-249 -43.5q-319 0 -520 215t-201 562q0 227 95 405.5t271.5 279.5t407.5 101q274 0 462 -148.5t214 -392.5h-348q-28 115 -119 172.5t-217 57.5z" />
    <glyph glyph-name="gbreve" unicode="&#x11f;" horiz-adv-x="1296" 
d="M733 1493h221q0 -167 -98 -266t-262 -99q-169 0 -267 98t-98 267h224q0 -77 37 -118.5t104 -41.5q66 0 102.5 42.5t36.5 117.5zM68 530q0 233 137 381t354 148q103 0 183 -36.5t122 -100.5l17 102h297v-958q0 -275 -149.5 -431.5t-412.5 -156.5q-235 0 -383 125.5
t-170 343.5h320q4 -86 65.5 -134.5t165.5 -48.5q114 0 181 63.5t67 172.5v133q-46 -56 -128 -88.5t-181 -32.5q-215 0 -350 144t-135 374zM385 539q0 -110 67 -181t171 -71q107 0 173 69t66 183q0 112 -66 178.5t-175 66.5q-104 0 -170 -68t-66 -177z" />
    <glyph glyph-name="Gdotaccent" unicode="&#x120;" horiz-adv-x="1640" 
d="M844 1634q-69 0 -117.5 49t-48.5 119q0 69 49 118.5t117 49.5q69 0 118.5 -50t49.5 -118q0 -69 -49.5 -118.5t-118.5 -49.5zM840 1229q-201 0 -308.5 -130.5t-107.5 -355.5q0 -222 113 -339t301 -117q177 0 270 82t104 211h-401v290h713v-870h-285l-18 137
q-62 -73 -177 -116.5t-249 -43.5q-319 0 -520 215t-201 562q0 227 95 405.5t271.5 279.5t407.5 101q274 0 462 -148.5t214 -392.5h-348q-28 115 -119 172.5t-217 57.5z" />
    <glyph glyph-name="gdotaccent" unicode="&#x121;" horiz-adv-x="1296" 
d="M590 1163q-69 0 -117.5 49t-48.5 119q0 69 49 118.5t117 49.5q69 0 118.5 -50t49.5 -118q0 -69 -49.5 -118.5t-118.5 -49.5zM68 530q0 233 137 381t354 148q103 0 183 -36.5t122 -100.5l17 102h297v-958q0 -275 -149.5 -431.5t-412.5 -156.5q-235 0 -383 125.5
t-170 343.5h320q4 -86 65.5 -134.5t165.5 -48.5q114 0 181 63.5t67 172.5v133q-46 -56 -128 -88.5t-181 -32.5q-215 0 -350 144t-135 374zM385 539q0 -110 67 -181t171 -71q107 0 173 69t66 183q0 112 -66 178.5t-175 66.5q-104 0 -170 -68t-66 -177z" />
    <glyph glyph-name="Gcommaaccent" unicode="&#x122;" horiz-adv-x="1640" 
d="M840 1229q-201 0 -308.5 -130.5t-107.5 -355.5q0 -222 113 -339t301 -117q177 0 270 82t104 211h-401v290h713v-870h-285l-18 137q-62 -73 -177 -116.5t-249 -43.5q-319 0 -520 215t-201 562q0 227 95 405.5t271.5 279.5t407.5 101q274 0 462 -148.5t214 -392.5h-348
q-28 115 -119 172.5t-217 57.5zM944 -250q0 -123 -75 -196t-214 -54v97q160 -21 166 77q-20 -14 -57 -14q-56 0 -90.5 37t-34.5 94q0 63 40.5 101t108.5 38q71 0 113.5 -49t42.5 -131z" />
    <glyph glyph-name="gcommaaccent" unicode="&#x123;" horiz-adv-x="1296" 
d="M729 1329q0 -63 -40.5 -101t-108.5 -38q-71 0 -113.5 49t-42.5 131q0 123 75 196t214 54v-96q-160 21 -166 -78q20 14 57 14q56 0 90.5 -37t34.5 -94zM68 530q0 233 137 381t354 148q103 0 183 -36.5t122 -100.5l17 102h297v-958q0 -275 -149.5 -431.5t-412.5 -156.5
q-235 0 -383 125.5t-170 343.5h320q4 -86 65.5 -134.5t165.5 -48.5q114 0 181 63.5t67 172.5v133q-46 -56 -128 -88.5t-181 -32.5q-215 0 -350 144t-135 374zM385 539q0 -110 67 -181t171 -71q107 0 173 69t66 183q0 112 -66 178.5t-175 66.5q-104 0 -170 -68t-66 -177z" />
    <glyph glyph-name="Hbar" unicode="&#x126;" horiz-adv-x="1564" 
d="M489 0h-331v1081h-154v279h154v156h331v-156h586v156h332v-156h156v-279h-156v-1081h-332v610h-586v-610zM489 918h586v163h-586v-163z" />
    <glyph glyph-name="hbar" unicode="&#x127;" horiz-adv-x="1241" 
d="M434 0h-315v1182h-133v182h133v180h317v-180h316v-182h-316v-264q47 66 130.5 102.5t183.5 36.5q183 0 284 -111.5t101 -312.5v-633h-316v557q0 97 -49 155t-131 58q-94 0 -149.5 -57t-55.5 -152v-561z" />
    <glyph glyph-name="Itilde" unicode="&#x128;" horiz-adv-x="647" 
d="M111 1626l-177 -2q-19 150 40.5 241t172.5 91q51 0 100 -20t81 -43.5t69 -43.5t66 -20q74 0 74 127h176q17 -163 -42.5 -247.5t-172.5 -84.5q-53 0 -104 20t-83.5 43.5t-68 43.5t-60.5 20q-71 0 -71 -125zM489 1516v-1516h-331v1516h331z" />
    <glyph glyph-name="itilde" unicode="&#x129;" horiz-adv-x="552" 
d="M66 1155l-177 -2q-19 150 40.5 241t172.5 91q51 0 100 -20t81 -43.5t69 -43.5t66 -20q74 0 74 127h176q17 -163 -42.5 -247.5t-172.5 -84.5q-53 0 -104 20t-83.5 43.5t-68 43.5t-60.5 20q-71 0 -71 -125zM119 0v1024h315v-1024h-315z" />
    <glyph glyph-name="Imacron" unicode="&#x12a;" horiz-adv-x="647" 
d="M27 1673v213h594v-213h-594zM489 1516v-1516h-331v1516h331z" />
    <glyph glyph-name="imacron" unicode="&#x12b;" horiz-adv-x="552" 
d="M-18 1202v213h593v-213h-593zM119 0v1024h315v-1024h-315z" />
    <glyph glyph-name="Iogonek" unicode="&#x12e;" horiz-adv-x="647" 
d="M301 0h-143v1516h331v-1516h-2q-81 -27 -122 -73t-41 -93q0 -35 23.5 -58.5t62.5 -23.5q28 0 63 15v-201q-53 -23 -121 -23q-106 0 -170.5 63.5t-64.5 155.5q0 75 46.5 139.5t137.5 98.5z" />
    <glyph glyph-name="iogonek" unicode="&#x12f;" horiz-adv-x="552" 
d="M274 1184q-75 0 -127.5 52.5t-52.5 127.5t52.5 126.5t127.5 51.5q74 0 126.5 -51.5t52.5 -126.5t-52.5 -127.5t-126.5 -52.5zM119 0v1024h315v-1024h-2q-81 -28 -122.5 -73.5t-41.5 -92.5q0 -35 23.5 -58.5t62.5 -23.5q30 0 64 15v-201q-53 -23 -121 -23
q-106 0 -171 63.5t-65 155.5q0 75 47 139.5t138 98.5h-127z" />
    <glyph glyph-name="Idotaccent" unicode="&#x130;" horiz-adv-x="647" 
d="M322 1634q-69 0 -117.5 49t-48.5 119q0 69 49 118.5t117 49.5q69 0 118 -50t49 -118q0 -69 -49 -118.5t-118 -49.5zM489 1516v-1516h-331v1516h331z" />
    <glyph glyph-name="dotlessi" unicode="&#x131;" horiz-adv-x="552" 
d="M119 0v1024h315v-1024h-315z" />
    <glyph glyph-name="Jcircumflex" unicode="&#x134;" horiz-adv-x="1181" 
d="M752 1620h-238l203 360h303l203 -360h-238l-117 215zM41 434v107h319v-107q0 -67 41.5 -110t130.5 -43q170 0 170 165v1070h332v-1090q0 -198 -136 -325.5t-361 -127.5q-241 0 -368.5 127.5t-127.5 333.5z" />
    <glyph glyph-name="jcircumflex" unicode="&#x135;" horiz-adv-x="552" 
d="M164 1149h-238l203 360h303l203 -360h-238l-116 215zM-111 -500l52 279q37 -12 77 -12q57 0 79 31.5t22 101.5v1124h315v-1165q0 -175 -101.5 -279t-283.5 -104q-83 0 -160 24z" />
    <glyph glyph-name="Kcommaaccent" unicode="&#x136;" horiz-adv-x="1452" 
d="M489 1516v-725l547 725h391l-495 -648l500 -868h-383l-334 586l-226 -295v-291h-331v1516h331zM893 -250q0 -123 -75 -196t-214 -54v97q160 -21 166 77q-20 -14 -57 -14q-56 0 -90.5 37t-34.5 94q0 63 40.5 101t108.5 38q71 0 113.5 -49t42.5 -131z" />
    <glyph glyph-name="kcommaaccent" unicode="&#x137;" horiz-adv-x="1171" 
d="M434 0h-315v1544h315v-889l332 369h395l-385 -406l373 -618h-365l-229 383l-121 -127v-256zM737 -250q0 -123 -74.5 -196t-213.5 -54v97q159 -20 165 77q-20 -14 -57 -14q-56 0 -90.5 37t-34.5 94q0 63 41 101t109 38q70 0 112.5 -49t42.5 -131z" />
    <glyph glyph-name="Lacute" unicode="&#x139;" horiz-adv-x="1138" 
d="M666 1919l-228 -340h-227l172 340h283zM489 1516v-1209h598v-307h-929v1516h331z" />
    <glyph glyph-name="lacute" unicode="&#x13a;" horiz-adv-x="552" 
d="M616 1950l-227 -340h-227l172 340h282zM434 0h-315v1544h315v-1544z" />
    <glyph glyph-name="Lcommaaccent" unicode="&#x13b;" horiz-adv-x="1138" 
d="M489 1516v-1209h598v-307h-929v1516h331zM803 -250q0 -123 -75 -196t-214 -54v97q160 -21 166 77q-20 -14 -57 -14q-56 0 -90.5 37t-34.5 94q0 63 40.5 101t108.5 38q71 0 113.5 -49t42.5 -131z" />
    <glyph glyph-name="lcommaaccent" unicode="&#x13c;" horiz-adv-x="552" 
d="M434 0h-315v1544h315v-1544zM426 -250q0 -123 -75 -196t-214 -54v97q160 -21 166 77q-20 -14 -57 -14q-56 0 -90.5 37t-34.5 94q0 63 40.5 101t108.5 38q71 0 113.5 -49t42.5 -131z" />
    <glyph glyph-name="Lcaron" unicode="&#x13d;" horiz-adv-x="1138" 
d="M489 1516v-1209h598v-307h-929v1516h331zM586 1114v402h252l-66 -402h-186z" />
    <glyph glyph-name="lcaron" unicode="&#x13e;" horiz-adv-x="552" 
d="M434 0h-315v1544h315v-1544zM530 1143v401h252l-65 -401h-187z" />
    <glyph glyph-name="Ldot" unicode="&#x13f;" horiz-adv-x="1138" 
d="M489 1516v-1209h598v-307h-929v1516h331zM793 573q-69 0 -120.5 50.5t-51.5 117.5q0 70 51 120t121 50q69 0 119.5 -51t50.5 -119t-50 -118t-120 -50z" />
    <glyph glyph-name="ldot" unicode="&#x140;" horiz-adv-x="851" 
d="M434 0h-315v1544h315v-1544zM705 573q-72 0 -123.5 50.5t-51.5 119.5q0 71 51.5 121.5t123.5 50.5q68 0 118.5 -51.5t50.5 -120.5q0 -68 -50 -119t-119 -51z" />
    <glyph glyph-name="Lslash" unicode="&#x141;" horiz-adv-x="1138" 
d="M33 492v245l125 60v719h331v-560l234 111v-246l-234 -110v-404h598v-307h-929v551z" />
    <glyph glyph-name="lslash" unicode="&#x142;" horiz-adv-x="552" 
d="M434 0h-315v606l-101 -47v219l101 47v719h315v-567l105 49v-219l-105 -49v-758z" />
    <glyph glyph-name="Nacute" unicode="&#x143;" horiz-adv-x="1609" 
d="M1155 1960l-227 -340h-228l172 340h283zM485 0h-327v1516h327l639 -965v965h328v-1516h-328l-639 963v-963z" />
    <glyph glyph-name="nacute" unicode="&#x144;" horiz-adv-x="1241" 
d="M987 1489l-227 -340h-228l173 340h282zM434 0h-315v1024h297l20 -106q47 66 130.5 102.5t183.5 36.5q183 0 284 -111.5t101 -312.5v-633h-316v557q0 97 -49 155t-131 58q-94 0 -149.5 -57t-55.5 -152v-561z" />
    <glyph glyph-name="Ncommaaccent" unicode="&#x145;" horiz-adv-x="1609" 
d="M485 0h-327v1516h327l639 -965v965h328v-1516h-328l-639 963v-963zM965 -250q0 -123 -75 -196t-214 -54v97q160 -21 166 77q-20 -14 -58 -14q-56 0 -90.5 37t-34.5 94q0 63 41 101t109 38q71 0 113.5 -49t42.5 -131z" />
    <glyph glyph-name="ncommaaccent" unicode="&#x146;" horiz-adv-x="1241" 
d="M434 0h-315v1024h297l20 -106q47 66 130.5 102.5t183.5 36.5q183 0 284 -111.5t101 -312.5v-633h-316v557q0 97 -49 155t-131 58q-94 0 -149.5 -57t-55.5 -152v-561zM778 -250q0 -123 -75 -196t-214 -54v97q160 -21 166 77q-20 -14 -57 -14q-56 0 -90.5 37t-34.5 94
q0 63 41 101t109 38q70 0 112.5 -49t42.5 -131z" />
    <glyph glyph-name="Ncaron" unicode="&#x147;" horiz-adv-x="1609" 
d="M664 1620l-203 360h237l117 -215l117 215h237l-202 -360h-303zM485 0h-327v1516h327l639 -965v965h328v-1516h-328l-639 963v-963z" />
    <glyph glyph-name="ncaron" unicode="&#x148;" horiz-adv-x="1241" 
d="M496 1149l-203 360h237l117 -215l117 215h237l-202 -360h-303zM434 0h-315v1024h297l20 -106q47 66 130.5 102.5t183.5 36.5q183 0 284 -111.5t101 -312.5v-633h-316v557q0 97 -49 155t-131 58q-94 0 -149.5 -57t-55.5 -152v-561z" />
    <glyph glyph-name="Eng" unicode="&#x14a;" horiz-adv-x="1609" 
d="M1067 -524q-117 0 -201 26l52 279q43 -14 98 -14q121 0 121 133v82l-652 981v-963h-327v1516h327l639 -965v965h328v-1657q0 -175 -101.5 -279t-283.5 -104z" />
    <glyph glyph-name="eng" unicode="&#x14b;" horiz-adv-x="1241" 
d="M434 0h-315v1024h297l20 -106q47 66 130.5 102.5t183.5 36.5q183 0 284 -111.5t101 -312.5v-774q0 -175 -101.5 -279t-283.5 -104q-83 0 -160 24l51 279q37 -12 78 -12q57 0 78.5 31.5t21.5 101.5v657q0 97 -49 155t-131 58q-94 0 -149.5 -57t-55.5 -152v-561z" />
    <glyph glyph-name="Omacron" unicode="&#x14c;" horiz-adv-x="1632" 
d="M520 1673v213h594v-213h-594zM1559 760q0 -171 -55 -317.5t-152.5 -249t-236.5 -160.5t-302 -58q-216 0 -384.5 98.5t-261.5 277t-93 407.5t93.5 407.5t262.5 277.5t385 99q163 0 301.5 -57.5t236 -159.5t152 -248t54.5 -317zM1208 760q0 217 -104 340t-287 123
q-184 0 -288.5 -123t-104.5 -340q0 -218 104.5 -341.5t288.5 -123.5q183 0 287 124.5t104 340.5z" />
    <glyph glyph-name="omacron" unicode="&#x14d;" horiz-adv-x="1255" 
d="M332 1202v213h594v-213h-594zM63 514q0 241 159 391t407 150q246 0 404.5 -150t158.5 -391t-158 -390t-405 -149q-248 0 -407 149t-159 390zM381 516q0 -116 68.5 -187t179.5 -71q109 0 177 71t68 187q0 115 -68 185.5t-177 70.5q-111 0 -179.5 -70.5t-68.5 -185.5z" />
    <glyph glyph-name="Ohungarumlaut" unicode="&#x150;" horiz-adv-x="1632" 
d="M983 1960l-227 -340h-217l192 340h252zM1343 1960l-227 -340h-217l193 340h251zM1559 760q0 -171 -55 -317.5t-152.5 -249t-236.5 -160.5t-302 -58q-216 0 -384.5 98.5t-261.5 277t-93 407.5t93.5 407.5t262.5 277.5t385 99q163 0 301.5 -57.5t236 -159.5t152 -248
t54.5 -317zM1208 760q0 217 -104 340t-287 123q-184 0 -288.5 -123t-104.5 -340q0 -218 104.5 -341.5t288.5 -123.5q183 0 287 124.5t104 340.5z" />
    <glyph glyph-name="ohungarumlaut" unicode="&#x151;" horiz-adv-x="1255" 
d="M795 1489l-228 -340h-217l193 340h252zM1155 1489l-227 -340h-217l192 340h252zM63 514q0 241 159 391t407 150q246 0 404.5 -150t158.5 -391t-158 -390t-405 -149q-248 0 -407 149t-159 390zM381 516q0 -116 68.5 -187t179.5 -71q109 0 177 71t68 187q0 115 -68 185.5
t-177 70.5q-111 0 -179.5 -70.5t-68.5 -185.5z" />
    <glyph glyph-name="OE" unicode="&#x152;" horiz-adv-x="2291" 
d="M74 758q0 227 90.5 404.5t260 278.5t392.5 101q111 0 218 -33.5t179 -93.5v101h963v-308h-631v-297h559v-290h-559v-314h631v-307h-963v115q-60 -60 -174 -100t-241 -40q-218 0 -383.5 101t-253.5 278t-88 404zM424 760q0 -218 110.5 -341.5t282.5 -123.5
q171 0 281 123.5t110 341.5t-109.5 340.5t-281.5 122.5t-282.5 -122.5t-110.5 -340.5z" />
    <glyph glyph-name="oe" unicode="&#x153;" horiz-adv-x="2002" 
d="M63 514q0 241 159 391t407 150q249 0 399 -156q149 158 385 158q241 0 381.5 -147t140.5 -398v-80l-743 -4q13 -101 71 -150t162 -49q89 0 149 31t77 86h288q-28 -170 -169 -271.5t-351 -101.5q-117 0 -216 42t-171 118q-152 -158 -403 -158q-248 0 -407 149t-159 390z
M1415 801q-94 0 -147 -43t-72 -135h426q0 82 -56 130t-151 48zM381 516q0 -116 68.5 -187t179.5 -71q109 0 177 71t68 187q0 115 -68 185.5t-177 70.5q-111 0 -179.5 -70.5t-68.5 -185.5z" />
    <glyph glyph-name="Racute" unicode="&#x154;" horiz-adv-x="1409" 
d="M989 1960l-227 -340h-227l172 340h282zM489 0h-331v1516h585q277 0 427.5 -128.5t150.5 -363.5q0 -293 -252 -422l266 -602h-362l-228 530h-256v-530zM489 1221v-400h252q109 0 169.5 53t60.5 150q0 95 -59 146t-169 51h-254z" />
    <glyph glyph-name="racute" unicode="&#x155;" horiz-adv-x="864" 
d="M805 1489l-227 -340h-228l172 340h283zM823 1024v-297h-100q-289 0 -289 -283v-444h-315v1022h297l16 -152q34 78 102.5 123t167.5 45q61 0 121 -14z" />
    <glyph glyph-name="Rcommaaccent" unicode="&#x156;" horiz-adv-x="1409" 
d="M489 0h-331v1516h585q277 0 427.5 -128.5t150.5 -363.5q0 -293 -252 -422l266 -602h-362l-228 530h-256v-530zM489 1221v-400h252q109 0 169.5 53t60.5 150q0 95 -59 146t-169 51h-254zM881 -250q0 -123 -75 -196t-214 -54v97q160 -21 166 77q-20 -14 -58 -14
q-56 0 -90.5 37t-34.5 94q0 63 41 101t109 38q71 0 113.5 -49t42.5 -131z" />
    <glyph glyph-name="rcommaaccent" unicode="&#x157;" horiz-adv-x="864" 
d="M823 1024v-297h-100q-289 0 -289 -283v-444h-315v1022h297l16 -152q34 78 102.5 123t167.5 45q61 0 121 -14zM428 -250q0 -123 -75 -196t-214 -54v97q160 -21 166 77q-20 -14 -57 -14q-56 0 -90.5 37t-34.5 94q0 63 40.5 101t108.5 38q71 0 113.5 -49t42.5 -131z" />
    <glyph glyph-name="Rcaron" unicode="&#x158;" horiz-adv-x="1409" 
d="M498 1620l-203 360h237l117 -215l117 215h238l-203 -360h-303zM489 0h-331v1516h585q277 0 427.5 -128.5t150.5 -363.5q0 -293 -252 -422l266 -602h-362l-228 530h-256v-530zM489 1221v-400h252q109 0 169.5 53t60.5 150q0 95 -59 146t-169 51h-254z" />
    <glyph glyph-name="rcaron" unicode="&#x159;" horiz-adv-x="864" 
d="M313 1149l-202 360h237l117 -215l117 215h237l-203 -360h-303zM823 1024v-297h-100q-289 0 -289 -283v-444h-315v1022h297l16 -152q34 78 102.5 123t167.5 45q61 0 121 -14z" />
    <glyph glyph-name="Sacute" unicode="&#x15a;" horiz-adv-x="1247" 
d="M958 1960l-227 -340h-227l172 340h282zM74 1075q0 206 156.5 337.5t400.5 131.5t387 -126t143 -341h-330q0 79 -55 125.5t-149 46.5q-102 0 -161.5 -43.5t-59.5 -118.5q0 -68 36 -104.5t117 -54.5l227 -47q204 -42 302 -144t98 -280q0 -219 -158.5 -351.5t-419.5 -132.5
q-254 0 -405.5 127t-151.5 340h330q0 -83 59.5 -127.5t169.5 -44.5q113 0 178.5 42t65.5 114q0 63 -32 97.5t-107 49.5l-232 47q-409 83 -409 457z" />
    <glyph glyph-name="sacute" unicode="&#x15b;" horiz-adv-x="983" 
d="M850 1489l-227 -340h-228l172 340h283zM45 324h299q3 -55 43 -85t111 -30t107 23.5t36 64.5q0 61 -92 80l-189 41q-145 32 -212.5 101.5t-67.5 201.5q0 156 119.5 246t308.5 90q179 0 291 -95.5t112 -250.5h-299q0 53 -31 84.5t-87 31.5q-54 0 -85.5 -25t-31.5 -67
q0 -66 110 -90l191 -41q131 -29 195.5 -94t64.5 -184q0 -162 -125.5 -257.5t-327.5 -95.5q-201 0 -320.5 97t-119.5 254z" />
    <glyph glyph-name="Scircumflex" unicode="&#x15c;" horiz-adv-x="1247" 
d="M502 1620h-238l203 360h303l203 -360h-238l-117 215zM74 1075q0 206 156.5 337.5t400.5 131.5t387 -126t143 -341h-330q0 79 -55 125.5t-149 46.5q-102 0 -161.5 -43.5t-59.5 -118.5q0 -68 36 -104.5t117 -54.5l227 -47q204 -42 302 -144t98 -280q0 -219 -158.5 -351.5
t-419.5 -132.5q-254 0 -405.5 127t-151.5 340h330q0 -83 59.5 -127.5t169.5 -44.5q113 0 178.5 42t65.5 114q0 63 -32 97.5t-107 49.5l-232 47q-409 83 -409 457z" />
    <glyph glyph-name="scircumflex" unicode="&#x15d;" horiz-adv-x="983" 
d="M393 1149h-237l202 360h304l202 -360h-237l-117 215zM45 324h299q3 -55 43 -85t111 -30t107 23.5t36 64.5q0 61 -92 80l-189 41q-145 32 -212.5 101.5t-67.5 201.5q0 156 119.5 246t308.5 90q179 0 291 -95.5t112 -250.5h-299q0 53 -31 84.5t-87 31.5q-54 0 -85.5 -25
t-31.5 -67q0 -66 110 -90l191 -41q131 -29 195.5 -94t64.5 -184q0 -162 -125.5 -257.5t-327.5 -95.5q-201 0 -320.5 97t-119.5 254z" />
    <glyph glyph-name="Scedilla" unicode="&#x15e;" horiz-adv-x="1247" 
d="M449 -436v131q86 -39 149 -39q58 0 86.5 22.5t28.5 61.5q0 34 -23.5 53t-66.5 19q-52 0 -101 -17l-28 80l49 100q-227 17 -359.5 141.5t-132.5 323.5h330q0 -83 59.5 -127.5t169.5 -44.5q113 0 178.5 42t65.5 114q0 63 -32 97.5t-107 49.5l-232 47q-409 83 -409 457
q0 206 156.5 337.5t400.5 131.5t387 -126t143 -341h-330q0 79 -55 125.5t-149 46.5q-102 0 -161.5 -43.5t-59.5 -118.5q0 -68 36 -104.5t117 -54.5l227 -47q204 -42 302 -144t98 -280q0 -208 -142.5 -338t-381.5 -144l-39 -73q30 12 73 12q71 0 124.5 -43t53.5 -131
q0 -101 -73.5 -158t-186.5 -57q-89 0 -165 39z" />
    <glyph glyph-name="scedilla" unicode="&#x15f;" horiz-adv-x="983" 
d="M45 324h299q3 -55 43 -85t111 -30t107 23.5t36 64.5q0 61 -92 80l-189 41q-145 32 -212.5 101.5t-67.5 201.5q0 156 119.5 246t308.5 90q179 0 291 -95.5t112 -250.5h-299q0 53 -31 84.5t-87 31.5q-54 0 -85.5 -25t-31.5 -67q0 -66 110 -90l191 -41q131 -29 195.5 -94
t64.5 -184q0 -152 -110.5 -246t-292.5 -105l-39 -73q30 12 73 12q71 0 125 -43t54 -131q0 -101 -74 -158t-187 -57q-89 0 -165 39v131q86 -39 149 -39q58 0 86.5 22.5t28.5 61.5q0 34 -23.5 53t-66.5 19q-52 0 -101 -17l-28 80l49 102q-171 17 -271 111t-100 236z" />
    <glyph glyph-name="Scaron" unicode="&#x160;" horiz-adv-x="1247" 
d="M467 1620l-203 360h238l116 -215l117 215h238l-203 -360h-303zM74 1075q0 206 156.5 337.5t400.5 131.5t387 -126t143 -341h-330q0 79 -55 125.5t-149 46.5q-102 0 -161.5 -43.5t-59.5 -118.5q0 -68 36 -104.5t117 -54.5l227 -47q204 -42 302 -144t98 -280
q0 -219 -158.5 -351.5t-419.5 -132.5q-254 0 -405.5 127t-151.5 340h330q0 -83 59.5 -127.5t169.5 -44.5q113 0 178.5 42t65.5 114q0 63 -32 97.5t-107 49.5l-232 47q-409 83 -409 457z" />
    <glyph glyph-name="scaron" unicode="&#x161;" horiz-adv-x="983" 
d="M358 1149l-202 360h237l117 -215l117 215h237l-202 -360h-304zM45 324h299q3 -55 43 -85t111 -30t107 23.5t36 64.5q0 61 -92 80l-189 41q-145 32 -212.5 101.5t-67.5 201.5q0 156 119.5 246t308.5 90q179 0 291 -95.5t112 -250.5h-299q0 53 -31 84.5t-87 31.5
q-54 0 -85.5 -25t-31.5 -67q0 -66 110 -90l191 -41q131 -29 195.5 -94t64.5 -184q0 -162 -125.5 -257.5t-327.5 -95.5q-201 0 -320.5 97t-119.5 254z" />
    <glyph glyph-name="Tcedilla" unicode="&#x162;" horiz-adv-x="1273" 
d="M469 -436v131q86 -39 149 -39q58 0 86.5 22.5t28.5 61.5q0 34 -23.5 53t-66.5 19q-51 0 -100 -17l-29 80l59 125h-102v1208h-430v308h1192v-308h-430v-1208h-109l-51 -98q30 12 74 12q71 0 124.5 -43t53.5 -131q0 -101 -73.5 -158t-186.5 -57q-90 0 -166 39z" />
    <glyph glyph-name="tcedilla" unicode="&#x163;" horiz-adv-x="749" 
d="M221 -436v131q86 -39 150 -39q58 0 86 22.5t28 61.5q0 34 -23.5 53t-66.5 19q-51 0 -100 -17l-29 80l60 125h-109v762h-194v262h194v317h315v-317h195v-262h-195v-762h-86l-51 -98q30 12 74 12q71 0 124.5 -43t53.5 -131q0 -101 -73.5 -158t-186.5 -57q-90 0 -166 39z
" />
    <glyph glyph-name="Tcaron" unicode="&#x164;" horiz-adv-x="1273" 
d="M485 1620l-202 360h237l117 -215l117 215h237l-203 -360h-303zM41 1208v308h1192v-308h-430v-1208h-332v1208h-430z" />
    <glyph glyph-name="tcaron" unicode="&#x165;" horiz-adv-x="749" 
d="M588 1114v402h252l-66 -402h-186zM532 0h-315v762h-194v262h194v317h315v-317h195v-262h-195v-762z" />
    <glyph glyph-name="Tbar" unicode="&#x166;" horiz-adv-x="1273" 
d="M254 604v268h217v336h-430v308h1192v-308h-430v-336h217v-268h-217v-604h-332v604h-217z" />
    <glyph glyph-name="tbar" unicode="&#x167;" horiz-adv-x="749" 
d="M532 0h-315v387h-147v242h147v133h-194v262h194v317h315v-317h195v-262h-195v-133h148v-242h-148v-387z" />
    <glyph glyph-name="Utilde" unicode="&#x168;" horiz-adv-x="1544" 
d="M559 1626l-176 -2q-19 150 40.5 241t172.5 91q51 0 100 -20t81 -43.5t68.5 -43.5t65.5 -20q74 0 74 127h176q17 -163 -42.5 -247.5t-172.5 -84.5q-53 0 -104 20t-83 43.5t-67.5 43.5t-60.5 20q-72 0 -72 -125zM147 569v947h332v-924q0 -142 75.5 -218.5t215.5 -76.5
q141 0 218 77.5t77 217.5v924h332v-947q0 -270 -170.5 -432t-456.5 -162q-284 0 -453.5 161.5t-169.5 432.5z" />
    <glyph glyph-name="utilde" unicode="&#x169;" horiz-adv-x="1232" 
d="M397 1155l-176 -2q-19 150 40.5 241t172.5 91q51 0 100 -20t81 -43.5t69 -43.5t66 -20q73 0 73 127h176q17 -163 -42.5 -247.5t-172.5 -84.5q-53 0 -104 20t-83 43.5t-67.5 43.5t-60.5 20q-72 0 -72 -125zM799 1024h315v-1024h-297l-20 115q-47 -63 -134.5 -102.5
t-179.5 -39.5q-175 0 -276 109.5t-101 298.5v643h316v-528q0 -126 44.5 -184t141.5 -58q101 0 146 56t45 182v532z" />
    <glyph glyph-name="Umacron" unicode="&#x16a;" horiz-adv-x="1544" 
d="M475 1673v213h594v-213h-594zM147 569v947h332v-924q0 -142 75.5 -218.5t215.5 -76.5q141 0 218 77.5t77 217.5v924h332v-947q0 -270 -170.5 -432t-456.5 -162q-284 0 -453.5 161.5t-169.5 432.5z" />
    <glyph glyph-name="umacron" unicode="&#x16b;" horiz-adv-x="1232" 
d="M313 1202v213h594v-213h-594zM799 1024h315v-1024h-297l-20 115q-47 -63 -134.5 -102.5t-179.5 -39.5q-175 0 -276 109.5t-101 298.5v643h316v-528q0 -126 44.5 -184t141.5 -58q101 0 146 56t45 182v532z" />
    <glyph glyph-name="Uring" unicode="&#x16e;" horiz-adv-x="1544" 
d="M772 1583q-126 0 -207.5 80.5t-81.5 204.5q0 122 83 204t206 82t206 -82t83 -204t-82.5 -203.5t-206.5 -81.5zM772 1743q55 0 88 35t33 94q0 54 -33.5 88.5t-87.5 34.5t-87.5 -34t-33.5 -89q0 -59 33 -94t88 -35zM147 569v947h332v-924q0 -142 75.5 -218.5t215.5 -76.5
q141 0 218 77.5t77 217.5v924h332v-947q0 -270 -170.5 -432t-456.5 -162q-284 0 -453.5 161.5t-169.5 432.5z" />
    <glyph glyph-name="uring" unicode="&#x16f;" horiz-adv-x="1232" 
d="M610 1112q-126 0 -207 80t-81 205q0 122 82.5 204t205.5 82t206 -82t83 -204t-82.5 -203.5t-206.5 -81.5zM610 1272q55 0 88 35t33 94q0 54 -33.5 88.5t-87.5 34.5t-87.5 -34t-33.5 -89q0 -59 33 -94t88 -35zM799 1024h315v-1024h-297l-20 115q-47 -63 -134.5 -102.5
t-179.5 -39.5q-175 0 -276 109.5t-101 298.5v643h316v-528q0 -126 44.5 -184t141.5 -58q101 0 146 56t45 182v532z" />
    <glyph glyph-name="Uhungarumlaut" unicode="&#x170;" horiz-adv-x="1544" 
d="M938 1960l-227 -340h-217l192 340h252zM1298 1960l-227 -340h-217l193 340h251zM147 569v947h332v-924q0 -142 75.5 -218.5t215.5 -76.5q141 0 218 77.5t77 217.5v924h332v-947q0 -270 -170.5 -432t-456.5 -162q-284 0 -453.5 161.5t-169.5 432.5z" />
    <glyph glyph-name="uhungarumlaut" unicode="&#x171;" horiz-adv-x="1232" 
d="M776 1489l-227 -340h-217l192 340h252zM1137 1489l-228 -340h-217l193 340h252zM799 1024h315v-1024h-297l-20 115q-47 -63 -134.5 -102.5t-179.5 -39.5q-175 0 -276 109.5t-101 298.5v643h316v-528q0 -126 44.5 -184t141.5 -58q101 0 146 56t45 182v532z" />
    <glyph glyph-name="Uogonek" unicode="&#x172;" horiz-adv-x="1544" 
d="M147 569v947h332v-924q0 -142 75.5 -218.5t215.5 -76.5q141 0 218 77.5t77 217.5v924h332v-947q0 -218 -113.5 -368t-314.5 -201q-80 -29 -121 -74.5t-41 -91.5q0 -35 23.5 -58.5t62.5 -23.5q28 0 63 15v-201q-53 -23 -120 -23q-106 0 -171 63.5t-65 155.5
q0 63 33.5 119.5t99.5 93.5q-269 12 -427.5 172t-158.5 422z" />
    <glyph glyph-name="uogonek" unicode="&#x173;" horiz-adv-x="1232" 
d="M926 0h-109l-20 115q-47 -63 -134.5 -102.5t-179.5 -39.5q-175 0 -276 109.5t-101 298.5v643h316v-528q0 -126 44.5 -184t141.5 -58q101 0 146 56t45 182v532h315v-1024h-2q-81 -28 -122.5 -73.5t-41.5 -92.5q0 -35 23.5 -58.5t62.5 -23.5q30 0 64 15v-201
q-53 -23 -121 -23q-106 0 -171 63.5t-65 155.5q0 75 47 139.5t138 98.5z" />
    <glyph glyph-name="Wcircumflex" unicode="&#x174;" horiz-adv-x="2189" 
d="M979 1620h-238l203 360h303l203 -360h-238l-116 215zM485 0l-454 1516h346l198 -658q47 -158 76 -330q26 156 76 330l186 658h371l178 -658q46 -170 76 -330q38 190 80 326l203 662h338l-463 -1516h-324l-276 995l-285 -995h-326z" />
    <glyph glyph-name="wcircumflex" unicode="&#x175;" horiz-adv-x="1701" 
d="M737 1149h-237l202 360h304l202 -360h-237l-117 215zM350 0l-330 1024h332l94 -334q41 -144 64 -291q19 118 74 291l104 334h324l96 -334q55 -193 70 -291q11 71 71 291l99 334h333l-358 -1024h-293l-98 326q-70 231 -84 331q-18 -97 -92 -338l-99 -319h-307z" />
    <glyph glyph-name="Ycircumflex" unicode="&#x176;" horiz-adv-x="1396" 
d="M586 1620h-238l203 360h303l203 -360h-238l-117 215zM532 575l-512 941h371l254 -492q29 -54 57 -123q4 8 24.5 52t35.5 73l254 490h360l-512 -941v-575h-332v575z" />
    <glyph glyph-name="ycircumflex" unicode="&#x177;" horiz-adv-x="1157" 
d="M479 1149h-237l202 360h304l202 -360h-237l-117 215zM37 -492v265h174q80 0 120.5 30t71.5 113l19 49l-412 1059h338l223 -657l248 657h328l-520 -1247q-64 -156 -155 -226.5t-226 -70.5q-114 0 -209 28z" />
    <glyph glyph-name="Ydieresis" unicode="&#x178;" horiz-adv-x="1396" 
d="M500 1634q-66 0 -112 46.5t-46 113.5q0 64 47 111t111 47t110.5 -47.5t46.5 -110.5q0 -66 -46 -113t-111 -47zM905 1634q-66 0 -111.5 46.5t-45.5 113.5q0 65 46.5 111.5t110.5 46.5t111 -47.5t47 -110.5q0 -66 -46.5 -113t-111.5 -47zM532 575l-512 941h371l254 -492
q29 -54 57 -123q4 8 24.5 52t35.5 73l254 490h360l-512 -941v-575h-332v575z" />
    <glyph glyph-name="Zacute" unicode="&#x179;" horiz-adv-x="1214" 
d="M928 1960l-228 -340h-227l172 340h283zM1163 0h-1112v311l676 897h-655v308h1071v-297l-686 -912h706v-307z" />
    <glyph glyph-name="zacute" unicode="&#x17a;" horiz-adv-x="1005" 
d="M844 1489l-228 -340h-227l172 340h283zM932 0h-858v262l458 500h-458v262h858v-262l-471 -500h471v-262z" />
    <glyph glyph-name="Zdotaccent" unicode="&#x17b;" horiz-adv-x="1214" 
d="M586 1634q-69 0 -117.5 49t-48.5 119q0 69 49 118.5t117 49.5q69 0 118.5 -50t49.5 -118q0 -69 -49.5 -118.5t-118.5 -49.5zM1163 0h-1112v311l676 897h-655v308h1071v-297l-686 -912h706v-307z" />
    <glyph glyph-name="zdotaccent" unicode="&#x17c;" horiz-adv-x="1005" 
d="M502 1163q-69 0 -117.5 49t-48.5 119q0 69 49 118.5t117 49.5q69 0 118.5 -50t49.5 -118q0 -69 -49.5 -118.5t-118.5 -49.5zM932 0h-858v262l458 500h-458v262h858v-262l-471 -500h471v-262z" />
    <glyph glyph-name="Zcaron" unicode="&#x17d;" horiz-adv-x="1214" 
d="M436 1620l-203 360h238l117 -215l117 215h237l-203 -360h-303zM1163 0h-1112v311l676 897h-655v308h1071v-297l-686 -912h706v-307z" />
    <glyph glyph-name="zcaron" unicode="&#x17e;" horiz-adv-x="1005" 
d="M352 1149l-202 360h237l117 -215l117 215h237l-203 -360h-303zM932 0h-858v262l458 500h-458v262h858v-262l-471 -500h471v-262z" />
    <glyph glyph-name="florin" unicode="&#x192;" horiz-adv-x="1366" 
d="M150 838h376l33 264q25 204 156.5 322t345.5 118h201v-303h-218q-64 0 -100.5 -37t-46.5 -121l-31 -243h375v-295h-410l-73 -600q-23 -189 -138.5 -286t-353.5 -97h-162v303h168q62 0 103.5 33.5t48.5 97.5l68 549h-342v295z" />
    <glyph glyph-name="Aringacute" unicode="&#x1fa;" horiz-adv-x="1439" 
d="M1069 2312l-227 -340h-228l172 340h283zM365 0h-347l510 1427q-92 82 -92 215q0 122 83 204.5t206 82.5t206 -82.5t83 -204.5q0 -134 -99 -217l506 -1425h-352l-106 319h-490zM725 1518q55 0 88 35t33 94q0 54 -33.5 88t-87.5 34t-87.5 -33.5t-33.5 -88.5q0 -59 33 -94
t88 -35zM678 922l-109 -324h299l-108 324q-36 113 -41 147q-8 -46 -41 -147z" />
    <glyph glyph-name="aringacute" unicode="&#x1fb;" horiz-adv-x="1155" 
d="M909 1796l-209 -293h-208l157 293h260zM428 -27q-163 0 -257.5 88.5t-94.5 239.5q0 142 98 226.5t281 97.5l286 22v17q0 75 -44.5 114t-129.5 39q-100 0 -152.5 -37t-52.5 -106h-262q0 121 65 210t183 134q-47 68 -47 164q0 122 83 204t206 82t206 -82t83 -204
q0 -97 -56 -172q110 -53 168 -157.5t58 -254.5v-598h-279l-20 135q-25 -71 -116 -116.5t-206 -45.5zM590 1057q55 0 88 35t33 94q0 54 -33.5 88.5t-87.5 34.5t-87.5 -34t-33.5 -89q0 -59 33 -94t88 -35zM539 207q93 0 148.5 45t55.5 131v55l-159 -14q-102 -9 -144.5 -34
t-42.5 -75q0 -108 142 -108z" />
    <glyph glyph-name="AEacute" unicode="&#x1fc;" horiz-adv-x="1980" 
d="M1507 1960l-227 -340h-227l172 340h282zM8 0l613 1516h1245v-308h-631v-297h559v-290h-559v-314h631v-307h-963v342h-387l-129 -342h-379zM623 621h280v587h-57z" />
    <glyph glyph-name="aeacute" unicode="&#x1fd;" horiz-adv-x="1837" 
d="M1233 1489l-227 -340h-228l172 340h283zM76 301q0 148 102.5 231t276.5 86l286 7v39q0 153 -184 153q-94 0 -144.5 -38t-50.5 -105h-262q0 172 128 277.5t335 105.5q242 0 348 -119q135 119 336 119q245 0 383.5 -149t138.5 -396v-80l-745 -4q33 -199 236 -199
q92 0 150.5 32t74.5 85h289q-28 -169 -168.5 -271t-352.5 -102q-129 0 -233 51t-172 144q-58 -97 -160.5 -146t-236.5 -49q-179 0 -277 88t-98 240zM1249 801q-186 0 -225 -180h432q0 79 -54 129.5t-153 50.5zM397 315q0 -52 37.5 -80t104.5 -28q97 0 150.5 47.5t53.5 128.5
v49l-180 -6q-90 -3 -128 -27t-38 -84z" />
    <glyph glyph-name="Oslashacute" unicode="&#x1fe;" horiz-adv-x="1632" 
d="M1133 1929l-228 -340h-227l172 340h283zM1559 760q0 -171 -55 -317.5t-152.5 -249t-236.5 -160.5t-302 -58q-197 0 -360 86l-43 -59h-314l162 215q-184 212 -184 541q0 229 93.5 407.5t262.5 277.5t385 99q208 0 373 -92l51 68h299l-164 -220q185 -213 185 -538zM424 760
q0 -148 51 -256l514 684q-75 35 -172 35q-184 0 -288.5 -123t-104.5 -340zM1208 760q0 149 -49 250l-508 -682q70 -33 166 -33q183 0 287 124.5t104 340.5z" />
    <glyph glyph-name="oslashacute" unicode="&#x1ff;" horiz-adv-x="1255" 
d="M969 1489l-228 -340h-227l172 340h283zM63 514q0 241 159 391t407 150q90 0 190 -27l58 92h268l-125 -202q83 -73 127.5 -176t44.5 -228q0 -241 -158 -390t-405 -149q-84 0 -174 23l-60 -98h-282l129 206q-85 72 -132 176.5t-47 231.5zM381 516q0 -73 33 -137l243 391
q-8 2 -28 2q-111 0 -179.5 -70.5t-68.5 -185.5zM874 516q0 70 -24 123l-234 -381h13q109 0 177 71t68 187z" />
    <glyph glyph-name="Scommaaccent" unicode="&#x218;" horiz-adv-x="1247" 
d="M74 1075q0 206 156.5 337.5t400.5 131.5t387 -126t143 -341h-330q0 79 -55 125.5t-149 46.5q-102 0 -161.5 -43.5t-59.5 -118.5q0 -68 36 -104.5t117 -54.5l227 -47q204 -42 302 -144t98 -280q0 -219 -158.5 -351.5t-419.5 -132.5q-254 0 -405.5 127t-151.5 340h330
q0 -83 59.5 -127.5t169.5 -44.5q113 0 178.5 42t65.5 114q0 63 -32 97.5t-107 49.5l-232 47q-409 83 -409 457zM766 -250q0 -123 -75 -196t-214 -54v97q160 -21 166 77q-20 -14 -57 -14q-56 0 -90.5 37t-34.5 94q0 63 40.5 101t108.5 38q71 0 113.5 -49t42.5 -131z" />
    <glyph glyph-name="scommaaccent" unicode="&#x219;" horiz-adv-x="983" 
d="M45 324h299q3 -55 43 -85t111 -30t107 23.5t36 64.5q0 61 -92 80l-189 41q-145 32 -212.5 101.5t-67.5 201.5q0 156 119.5 246t308.5 90q179 0 291 -95.5t112 -250.5h-299q0 53 -31 84.5t-87 31.5q-54 0 -85.5 -25t-31.5 -67q0 -66 110 -90l191 -41q131 -29 195.5 -94
t64.5 -184q0 -162 -125.5 -257.5t-327.5 -95.5q-201 0 -320.5 97t-119.5 254zM639 -250q0 -123 -75 -196t-214 -54v97q160 -21 166 77q-20 -14 -57 -14q-56 0 -90.5 37t-34.5 94q0 63 40.5 101t108.5 38q71 0 113.5 -49t42.5 -131z" />
    <glyph glyph-name="Tcommaaccent" unicode="&#x21a;" horiz-adv-x="1273" 
d="M41 1208v308h1192v-308h-430v-1208h-332v1208h-430zM786 -250q0 -123 -74.5 -196t-213.5 -54v97q160 -21 166 77q-20 -14 -58 -14q-56 0 -90.5 37t-34.5 94q0 63 41 101t109 38q70 0 112.5 -49t42.5 -131z" />
    <glyph glyph-name="tcommaaccent" unicode="&#x21b;" horiz-adv-x="749" 
d="M532 0h-315v762h-194v262h194v317h315v-317h195v-262h-195v-762zM539 -250q0 -123 -75 -196t-214 -54v97q160 -21 166 77q-20 -14 -58 -14q-56 0 -90.5 37t-34.5 94q0 63 41 101t109 38q71 0 113.5 -49t42.5 -131z" />
    <glyph glyph-name="dotlessj" unicode="&#x237;" horiz-adv-x="552" 
d="M-111 -500l52 279q37 -12 77 -12q57 0 79 31.5t22 101.5v1124h315v-1165q0 -175 -101.5 -279t-283.5 -104q-83 0 -160 24z" />
    <glyph glyph-name="circumflex" unicode="&#x2c6;" horiz-adv-x="872" 
d="M319 1579h-237l203 360h303l203 -360h-238l-117 215z" />
    <glyph glyph-name="caron" unicode="&#x2c7;" horiz-adv-x="872" 
d="M285 1579l-203 360h237l117 -215l117 215h238l-203 -360h-303z" />
    <glyph glyph-name="breve" unicode="&#x2d8;" horiz-adv-x="958" 
d="M621 1923h221q0 -167 -98 -265.5t-263 -98.5q-169 0 -266.5 97.5t-97.5 266.5h223q0 -77 37 -118.5t104 -41.5q66 0 103 42.5t37 117.5z" />
    <glyph glyph-name="dotaccent" unicode="&#x2d9;" horiz-adv-x="497" 
d="M248 1593q-69 0 -117.5 49t-48.5 119q0 69 49 118.5t117 49.5q69 0 118.5 -50t49.5 -118q0 -69 -49.5 -118.5t-118.5 -49.5z" />
    <glyph glyph-name="ring" unicode="&#x2da;" horiz-adv-x="729" 
d="M365 1542q-126 0 -207.5 80.5t-81.5 204.5q0 122 83 204.5t206 82.5t205.5 -82.5t82.5 -204.5t-82 -203.5t-206 -81.5zM365 1702q55 0 87.5 35t32.5 94q0 54 -33 88.5t-87 34.5t-87.5 -34t-33.5 -89q0 -59 33 -94t88 -35z" />
    <glyph glyph-name="ogonek" unicode="&#x2db;" horiz-adv-x="534" 
d="M276 0h187q-81 -28 -122.5 -73.5t-41.5 -92.5q0 -35 23.5 -58.5t62.5 -23.5q29 0 64 15v-201q-53 -23 -121 -23q-106 0 -171 63.5t-65 155.5q0 75 46.5 139.5t137.5 98.5z" />
    <glyph glyph-name="tilde" unicode="&#x2dc;" horiz-adv-x="956" 
d="M266 1585l-176 -2q-19 150 40.5 241t172.5 91q51 0 100 -20t81 -43.5t68.5 -43.5t65.5 -20q74 0 74 127h176q17 -163 -42.5 -247.5t-172.5 -84.5q-53 0 -104 20t-83 43.5t-67.5 43.5t-60.5 20q-72 0 -72 -125z" />
    <glyph glyph-name="hungarumlaut" unicode="&#x2dd;" horiz-adv-x="1028" 
d="M526 1919l-227 -340h-217l192 340h252zM887 1919l-228 -340h-217l193 340h252z" />
    <glyph glyph-name="gravecomb" unicode="&#x300;" horiz-adv-x="638" 
d="M557 1579h-227l-228 340h283z" />
    <glyph glyph-name="acutecomb" unicode="&#x301;" horiz-adv-x="638" 
d="M537 1919l-228 -340h-227l172 340h283z" />
    <glyph glyph-name="circumflexcomb" unicode="&#x302;" horiz-adv-x="872" 
d="M319 1579h-237l203 360h303l203 -360h-238l-117 215z" />
    <glyph glyph-name="tildecomb" unicode="&#x303;" horiz-adv-x="956" 
d="M266 1585l-176 -2q-19 150 40.5 241t172.5 91q51 0 100 -20t81 -43.5t68.5 -43.5t65.5 -20q74 0 74 127h176q17 -163 -42.5 -247.5t-172.5 -84.5q-53 0 -104 20t-83 43.5t-67.5 43.5t-60.5 20q-72 0 -72 -125z" />
    <glyph glyph-name="macroncomb" unicode="&#x304;" horiz-adv-x="839" 
d="M123 1632v213h594v-213h-594z" />
    <glyph glyph-name="brevecomb" unicode="&#x306;" horiz-adv-x="958" 
d="M621 1923h221q0 -167 -98 -265.5t-263 -98.5q-169 0 -266.5 97.5t-97.5 266.5h223q0 -77 37 -118.5t104 -41.5q66 0 103 42.5t37 117.5z" />
    <glyph glyph-name="dotaccentcomb" unicode="&#x307;" horiz-adv-x="497" 
d="M248 1593q-69 0 -117.5 49t-48.5 119q0 69 49 118.5t117 49.5q69 0 118.5 -50t49.5 -118q0 -69 -49.5 -118.5t-118.5 -49.5z" />
    <glyph glyph-name="dieresiscomb" unicode="&#x308;" horiz-adv-x="933" 
d="M264 1593q-66 0 -112 46.5t-46 113.5q0 65 47 111.5t111 46.5t111 -47.5t47 -110.5q0 -66 -46.5 -113t-111.5 -47zM670 1593q-66 0 -112 46.5t-46 113.5q0 65 47 111.5t111 46.5t110.5 -47.5t46.5 -110.5q0 -66 -46 -113t-111 -47z" />
    <glyph glyph-name="ringcomb" unicode="&#x30a;" horiz-adv-x="729" 
d="M365 1542q-126 0 -207.5 80.5t-81.5 204.5q0 122 83 204.5t206 82.5t205.5 -82.5t82.5 -204.5t-82 -203.5t-206 -81.5zM365 1702q55 0 87.5 35t32.5 94q0 54 -33 88.5t-87 34.5t-87.5 -34t-33.5 -89q0 -59 33 -94t88 -35z" />
    <glyph glyph-name="hungarumlautcomb" unicode="&#x30b;" horiz-adv-x="1028" 
d="M526 1919l-227 -340h-217l192 340h252zM887 1919l-228 -340h-217l193 340h252z" />
    <glyph glyph-name="caroncomb" unicode="&#x30c;" horiz-adv-x="872" 
d="M285 1579l-203 360h237l117 -215l117 215h238l-203 -360h-303z" />
    <glyph glyph-name="commaturnedabovecomb" unicode="&#x312;" horiz-adv-x="468" 
d="M387 1759q0 -63 -40.5 -101t-108.5 -38q-71 0 -113.5 49t-42.5 131q0 123 75 196t214 54v-96q-160 21 -166 -78q20 14 57 14q56 0 90.5 -37t34.5 -94z" />
    <glyph glyph-name="commaaccentcomb" unicode="&#x326;" horiz-adv-x="468" 
d="M387 -240q0 -123 -75 -195.5t-214 -53.5v96q160 -21 166 78q-21 -15 -57 -15q-56 0 -90.5 37t-34.5 94q0 63 41 101.5t108 38.5q70 0 113 -49.5t43 -131.5z" />
    <glyph glyph-name="cedillacomb" unicode="&#x327;" horiz-adv-x="569" 
d="M61 -436v131q86 -39 150 -39q58 0 86.5 22.5t28.5 61.5q0 34 -23.5 53t-66.5 19q-52 0 -101 -17l-29 80l103 213l88 -2v-68l-61 -116q30 12 73 12q71 0 124.5 -43t53.5 -131q0 -101 -73.5 -158t-186.5 -57q-90 0 -166 39z" />
    <glyph glyph-name="strokeshortcomb" unicode="&#x335;" horiz-adv-x="1310" 
d="M4 1364h766v-182h-766v182z" />
    <glyph glyph-name="slashshortcomb" unicode="&#x337;" horiz-adv-x="591" 
d="M41 600v219l520 248v-219z" />
    <glyph glyph-name="slashlongcomb" unicode="&#x338;" horiz-adv-x="1196" 
d="M1114 1130l-749 -1220h-283l764 1220h268z" />
    <glyph glyph-name="Omega" unicode="&#x3a9;" horiz-adv-x="1366" 
d="M618 0h-505v229h172q-138 148 -138 340q0 97 38.5 185.5t107 156t171 107t222.5 39.5q123 0 225.5 -40.5t169.5 -108.5t103.5 -155.5t36.5 -181.5q0 -195 -140 -342h172v-229h-503v229q95 41 147.5 123t52.5 185q0 115 -75 186.5t-191 71.5t-191 -71.5t-75 -188.5
q0 -109 54 -190.5t146 -115.5v-229z" />
    <glyph glyph-name="pi" unicode="&#x3c0;" horiz-adv-x="1368" 
d="M205 0v770h-178v254h1288v-254h-193v-412q0 -86 103 -86h90v-262q-120 -18 -221 -18q-149 0 -218 72t-69 227v479h-287v-770h-315z" />
    <glyph glyph-name="Wgrave" unicode="&#x1e80;" horiz-adv-x="2189" 
d="M1208 1620h-227l-227 340h282zM485 0l-454 1516h346l198 -658q47 -158 76 -330q26 156 76 330l186 658h371l178 -658q46 -170 76 -330q38 190 80 326l203 662h338l-463 -1516h-324l-276 995l-285 -995h-326z" />
    <glyph glyph-name="wgrave" unicode="&#x1e81;" horiz-adv-x="1701" 
d="M967 1149h-228l-227 340h283zM350 0l-330 1024h332l94 -334q41 -144 64 -291q19 118 74 291l104 334h324l96 -334q55 -193 70 -291q11 71 71 291l99 334h333l-358 -1024h-293l-98 326q-70 231 -84 331q-18 -97 -92 -338l-99 -319h-307z" />
    <glyph glyph-name="Wacute" unicode="&#x1e82;" horiz-adv-x="2189" 
d="M1436 1960l-228 -340h-227l172 340h283zM485 0l-454 1516h346l198 -658q47 -158 76 -330q26 156 76 330l186 658h371l178 -658q46 -170 76 -330q38 190 80 326l203 662h338l-463 -1516h-324l-276 995l-285 -995h-326z" />
    <glyph glyph-name="wacute" unicode="&#x1e83;" horiz-adv-x="1701" 
d="M1194 1489l-227 -340h-228l172 340h283zM350 0l-330 1024h332l94 -334q41 -144 64 -291q19 118 74 291l104 334h324l96 -334q55 -193 70 -291q11 71 71 291l99 334h333l-358 -1024h-293l-98 326q-70 231 -84 331q-18 -97 -92 -338l-99 -319h-307z" />
    <glyph glyph-name="Wdieresis" unicode="&#x1e84;" horiz-adv-x="2189" 
d="M893 1634q-66 0 -112 46.5t-46 113.5q0 64 46.5 111t111.5 47q64 0 111 -47.5t47 -110.5q0 -66 -46.5 -113t-111.5 -47zM1298 1634q-66 0 -111.5 46.5t-45.5 113.5q0 65 46.5 111.5t110.5 46.5t111 -47.5t47 -110.5q0 -66 -46.5 -113t-111.5 -47zM485 0l-454 1516h346
l198 -658q47 -158 76 -330q26 156 76 330l186 658h371l178 -658q46 -170 76 -330q38 190 80 326l203 662h338l-463 -1516h-324l-276 995l-285 -995h-326z" />
    <glyph glyph-name="wdieresis" unicode="&#x1e85;" horiz-adv-x="1701" 
d="M651 1163q-66 0 -111.5 46.5t-45.5 113.5q0 65 46.5 111.5t110.5 46.5t111 -47.5t47 -110.5q0 -66 -46.5 -113t-111.5 -47zM1057 1163q-66 0 -112 46.5t-46 113.5q0 65 46.5 111.5t111.5 46.5q64 0 110.5 -47.5t46.5 -110.5q0 -66 -46 -113t-111 -47zM350 0l-330 1024
h332l94 -334q41 -144 64 -291q19 118 74 291l104 334h324l96 -334q55 -193 70 -291q11 71 71 291l99 334h333l-358 -1024h-293l-98 326q-70 231 -84 331q-18 -97 -92 -338l-99 -319h-307z" />
    <glyph glyph-name="Ygrave" unicode="&#x1ef2;" horiz-adv-x="1396" 
d="M815 1620h-227l-228 340h283zM532 575l-512 941h371l254 -492q29 -54 57 -123q4 8 24.5 52t35.5 73l254 490h360l-512 -941v-575h-332v575z" />
    <glyph glyph-name="ygrave" unicode="&#x1ef3;" horiz-adv-x="1157" 
d="M709 1149h-228l-227 340h283zM37 -492v265h174q80 0 120.5 30t71.5 113l19 49l-412 1059h338l223 -657l248 657h328l-520 -1247q-64 -156 -155 -226.5t-226 -70.5q-114 0 -209 28z" />
    <glyph glyph-name="endash" unicode="&#x2013;" horiz-adv-x="2064" 
d="M143 410v278h1778v-278h-1778z" />
    <glyph glyph-name="emdash" unicode="&#x2014;" horiz-adv-x="2572" 
d="M143 410v278h2286v-278h-2286z" />
    <glyph glyph-name="quoteleft" unicode="&#x2018;" horiz-adv-x="620" 
d="M489 1124q0 -77 -48 -125.5t-124 -48.5q-84 0 -135 62t-51 164q0 151 87 252t228 116v-112q-77 -14 -122 -55t-45 -103q24 12 59 12q66 0 108.5 -44t42.5 -118z" />
    <glyph glyph-name="quoteright" unicode="&#x2019;" horiz-adv-x="620" 
d="M489 1319q0 -151 -87 -252.5t-228 -116.5v113q77 14 122.5 55t45.5 103q-26 -13 -59 -13q-66 0 -109 44t-43 118q0 77 48 125.5t124 48.5q84 0 135 -61.5t51 -163.5z" />
    <glyph glyph-name="quotesinglbase" unicode="&#x201a;" horiz-adv-x="620" 
d="M489 84q0 -151 -87 -252.5t-228 -116.5v113q77 14 122.5 55t45.5 103q-26 -13 -59 -13q-66 0 -109 44t-43 118q0 77 48 125.5t124 48.5q84 0 135 -61.5t51 -163.5z" />
    <glyph glyph-name="quotedblleft" unicode="&#x201c;" horiz-adv-x="1071" 
d="M489 1124q0 -77 -48 -125.5t-124 -48.5q-84 0 -135 62t-51 164q0 151 87 252t228 116v-112q-77 -14 -122 -55t-45 -103q24 12 59 12q66 0 108.5 -44t42.5 -118zM940 1124q0 -77 -48 -125.5t-124 -48.5q-84 0 -135 62t-51 164q0 151 87 252t228 116v-112
q-77 -14 -122.5 -55t-45.5 -103q24 12 59 12q66 0 109 -44t43 -118z" />
    <glyph glyph-name="quotedblright" unicode="&#x201d;" horiz-adv-x="1071" 
d="M489 1319q0 -151 -87 -252.5t-228 -116.5v113q77 14 122.5 55t45.5 103q-26 -13 -59 -13q-66 0 -109 44t-43 118q0 77 48 125.5t124 48.5q84 0 135 -61.5t51 -163.5zM940 1319q0 -151 -87 -252.5t-228 -116.5v113q77 14 122.5 55t45.5 103q-26 -13 -60 -13
q-66 0 -108.5 44t-42.5 118q0 77 48 125.5t124 48.5q84 0 135 -61.5t51 -163.5z" />
    <glyph glyph-name="quotedblbase" unicode="&#x201e;" horiz-adv-x="1071" 
d="M489 84q0 -151 -87 -252.5t-228 -116.5v113q77 14 122.5 55t45.5 103q-26 -13 -59 -13q-66 0 -109 44t-43 118q0 77 48 125.5t124 48.5q84 0 135 -61.5t51 -163.5zM940 84q0 -151 -87 -252.5t-228 -116.5v113q77 14 122.5 55t45.5 103q-26 -13 -60 -13q-66 0 -108.5 44
t-42.5 118q0 77 48 125.5t124 48.5q84 0 135 -61.5t51 -163.5z" />
    <glyph glyph-name="dagger" unicode="&#x2020;" horiz-adv-x="729" 
d="M272 602v533h-231v176h231v205h185v-205h231v-176h-231v-533h-185z" />
    <glyph glyph-name="daggerdbl" unicode="&#x2021;" horiz-adv-x="735" 
d="M272 602v205h-225v176h225v152h-231v176h231v205h185v-205h231v-176h-231v-152h237v-176h-237v-205h-185z" />
    <glyph glyph-name="bullet" unicode="&#x2022;" horiz-adv-x="960" 
d="M483 215q-143 0 -247.5 101.5t-104.5 242.5q0 142 104.5 246t247.5 104q141 0 243.5 -104.5t102.5 -245.5q0 -140 -103.5 -242t-242.5 -102z" />
    <glyph glyph-name="ellipsis" unicode="&#x2026;" horiz-adv-x="1736" 
d="M315 -27q-78 0 -133 55t-55 130q0 77 55 131.5t133 54.5q76 0 132.5 -55t56.5 -131q0 -75 -57 -130t-132 -55zM868 -27q-78 0 -133 55t-55 130q0 77 55 131.5t133 54.5q76 0 132.5 -55t56.5 -131q0 -75 -57 -130t-132 -55zM1421 -27q-78 0 -133 55t-55 130q0 77 55 131.5
t133 54.5q76 0 132.5 -55t56.5 -131q0 -75 -57 -130t-132 -55z" />
    <glyph glyph-name="perthousand" unicode="&#x2030;" horiz-adv-x="2926" 
d="M872 1133q0 -181 -114.5 -296.5t-294.5 -115.5t-295 115.5t-115 296.5t115 296t295 115t294.5 -115t114.5 -296zM1741 1511l-1151 -1511h-309l1151 1511h309zM627 1133q0 77 -45.5 125.5t-118.5 48.5t-118.5 -48.5t-45.5 -125.5t45.5 -126t118.5 -49t118.5 49t45.5 126z
M1972 385q0 -181 -114.5 -296.5t-294.5 -115.5t-295 115.5t-115 296.5t115 296.5t295 115.5t294.5 -115.5t114.5 -296.5zM2873 385q0 -181 -114.5 -296.5t-294.5 -115.5t-295 115.5t-115 296.5t115 296.5t295 115.5t294.5 -115.5t114.5 -296.5zM1726 385q0 77 -45 125.5
t-118 48.5t-118.5 -48.5t-45.5 -125.5t45.5 -125.5t118.5 -48.5t118 48.5t45 125.5zM2628 385q0 77 -45.5 125.5t-118.5 48.5t-118.5 -48.5t-45.5 -125.5t45.5 -125.5t118.5 -48.5t118.5 48.5t45.5 125.5z" />
    <glyph glyph-name="minute" unicode="&#x2032;" horiz-adv-x="405" 
d="M319 1395l-49 -402h-139l-49 402q-8 72 28 110.5t91 38.5t90.5 -38.5t27.5 -110.5z" />
    <glyph glyph-name="guilsinglleft" unicode="&#x2039;" horiz-adv-x="1024" 
d="M530 0l-448 512l448 512h412l-448 -512l448 -512h-412z" />
    <glyph glyph-name="guilsinglright" unicode="&#x203a;" horiz-adv-x="1024" 
d="M494 0h-412l448 512l-448 512h412l448 -512z" />
    <glyph glyph-name="asterism" unicode="&#x2042;" horiz-adv-x="1986" 
d="M737 1153l-143 51l57 148l137 -45q75 -31 144 -76q-19 116 -19 162v151h158v-151q0 -81 -18 -162q71 52 145 76l139 45l56 -148l-146 -51q-65 -25 -160 -33q51 -42 111 -116l84 -130l-129 -88l-86 121q-48 66 -78 144q-18 -66 -71 -144l-93 -121l-129 88l88 130
q56 70 113 116q-95 8 -160 33zM184 342l-143 51l57 148l138 -45q73 -30 143 -76q-19 116 -19 162v151h158v-151q0 -81 -18 -162q55 40 145 76l139 45l56 -148l-146 -51q-65 -25 -159 -33q48 -39 110 -116l84 -130l-129 -88l-86 121q-44 56 -78 144q-18 -66 -71 -144
l-93 -121l-129 88l88 130q56 70 113 116q-95 8 -160 33zM1290 342l-143 51l57 148l137 -45q75 -31 144 -76q-19 116 -19 162v151h158v-151q0 -81 -18 -162q55 40 145 76l139 45l56 -148l-146 -51q-65 -25 -160 -33q51 -42 111 -116l84 -130l-129 -88l-86 121q-44 56 -78 144
q-18 -63 -72 -144l-92 -121l-129 88l88 130q56 70 113 116q-95 8 -160 33z" />
    <glyph glyph-name="fraction" unicode="&#x2044;" horiz-adv-x="391" 
d="M811 1454l-985 -1454h-246l985 1454h246z" />
    <glyph glyph-name="zero.superior" unicode="&#x2070;" horiz-adv-x="884" 
d="M45 1128q0 213 110.5 345.5t290.5 132.5q186 0 292 -131t106 -347q0 -212 -109.5 -340.5t-290.5 -128.5q-187 0 -293 127t-106 342zM250 1128q0 -143 50.5 -214.5t145.5 -71.5q94 0 143.5 71.5t49.5 214.5q0 146 -49.5 219.5t-143.5 73.5q-95 0 -145.5 -73.5
t-50.5 -219.5z" />
    <glyph glyph-name="four.superior" unicode="&#x2074;" horiz-adv-x="784" 
d="M788 836h-110v-160h-197v160h-446v182l389 569h254v-573h110v-178zM262 1014h219v329z" />
    <glyph glyph-name="five.superior" unicode="&#x2075;" horiz-adv-x="753" 
d="M31 977h202q0 -61 38.5 -97t103.5 -36q68 0 105.5 38.5t37.5 108.5q0 72 -39 114t-106 42q-94 0 -133 -74l-189 25l117 489h498v-182h-338l-35 -119q55 25 121 25q135 0 222 -90t87 -228q0 -149 -95 -240t-249 -91q-152 0 -250 88.5t-98 226.5z" />
    <glyph glyph-name="six.superior" unicode="&#x2076;" horiz-adv-x="806" 
d="M195 1358l186 252h231l-227 -305q24 8 55 8q144 0 233 -84t89 -225q0 -153 -100 -249t-256 -96t-258.5 99t-102.5 246q0 86 32 161.5t118 192.5zM254 993q0 -66 42.5 -108.5t109.5 -42.5q66 0 107.5 42.5t41.5 108.5q0 67 -42 111.5t-107 44.5q-67 0 -109.5 -44.5
t-42.5 -111.5z" />
    <glyph glyph-name="seven.superior" unicode="&#x2077;" horiz-adv-x="716" 
d="M680 1405l-293 -729h-201l299 729h-448v182h643v-182z" />
    <glyph glyph-name="eight.superior" unicode="&#x2078;" horiz-adv-x="806" 
d="M45 928q0 83 43 146.5t117 88.5q-52 24 -82.5 74t-30.5 115q0 113 84.5 183.5t229.5 70.5q144 0 227.5 -70t83.5 -186q0 -68 -33.5 -118t-89.5 -71q76 -20 122 -83t46 -150q0 -123 -96.5 -194.5t-264.5 -71.5q-167 0 -261.5 71.5t-94.5 194.5zM264 1331q0 -44 35 -69
t102 -25q68 0 103 25t35 69t-36 72.5t-102 28.5q-67 0 -102 -28.5t-35 -72.5zM248 954q0 -53 40 -81.5t113 -28.5q75 0 115.5 28t40.5 82q0 55 -41 84t-113 29t-113.5 -29t-41.5 -84z" />
    <glyph glyph-name="nine.superior" unicode="&#x2079;" horiz-adv-x="806" 
d="M612 928l-186 -252h-231l227 305q-24 -8 -55 -8q-144 0 -233 84t-89 225q0 153 100 248.5t256 95.5t258.5 -98.5t102.5 -245.5q0 -86 -32 -161.5t-118 -192.5zM553 1292q0 66 -42.5 109t-109.5 43q-66 0 -107.5 -43t-41.5 -109q0 -67 42 -111t107 -44q67 0 109.5 44
t42.5 111z" />
    <glyph glyph-name="zero.inferior" unicode="&#x2080;" horiz-adv-x="888" 
d="M45 248q0 213 110.5 345t290.5 132q186 0 292 -130.5t106 -346.5q0 -212 -109.5 -340.5t-290.5 -128.5q-187 0 -293 127t-106 342zM250 248q0 -143 50.5 -215t145.5 -72q94 0 143.5 72t49.5 215q0 146 -49.5 219.5t-143.5 73.5q-95 0 -145.5 -73.5t-50.5 -219.5z" />
    <glyph glyph-name="one.inferior" unicode="&#x2081;" horiz-adv-x="565" 
d="M274 522h-233v185h438v-912h-205v727z" />
    <glyph glyph-name="two.inferior" unicode="&#x2082;" horiz-adv-x="753" 
d="M709 -205h-648v152l338 284q52 42 74.5 81t22.5 91q0 138 -119 138q-62 0 -95.5 -40.5t-33.5 -115.5h-203q6 158 94 249t236 91q152 0 238.5 -82t86.5 -227q0 -87 -39 -158t-118 -139l-164 -139h330v-185z" />
    <glyph glyph-name="three.inferior" unicode="&#x2083;" horiz-adv-x="743" 
d="M674 543l-207 -176q104 -22 167.5 -92t63.5 -187q0 -141 -95.5 -225t-237.5 -84q-141 0 -234.5 83.5t-93.5 233.5h203q0 -64 35.5 -98.5t95.5 -34.5q56 0 90.5 34.5t34.5 92.5q0 57 -36.5 93t-111.5 36h-133v133l207 172h-344v183h596v-164z" />
    <glyph glyph-name="four.inferior" unicode="&#x2084;" horiz-adv-x="804" 
d="M788 -45h-110v-160h-197v160h-446v182l389 570h254v-574h110v-178zM262 133h219v330z" />
    <glyph glyph-name="five.inferior" unicode="&#x2085;" horiz-adv-x="753" 
d="M31 96h202q0 -61 38.5 -97t103.5 -36q68 0 105.5 39t37.5 109q0 72 -39 113.5t-106 41.5q-94 0 -133 -73l-189 24l117 490h498v-183h-338l-35 -118q53 24 121 24q135 0 222 -89.5t87 -227.5q0 -149 -95 -240.5t-249 -91.5q-152 0 -250 88.5t-98 226.5z" />
    <glyph glyph-name="six.inferior" unicode="&#x2086;" horiz-adv-x="806" 
d="M195 477l186 252h231l-227 -305q24 8 55 8q144 0 233 -84t89 -225q0 -153 -100 -248.5t-256 -95.5t-258.5 98.5t-102.5 245.5q0 86 32 161.5t118 192.5zM254 113q0 -66 42.5 -109t109.5 -43q66 0 107.5 43t41.5 109q0 67 -42 111t-107 44q-67 0 -109.5 -44t-42.5 -111z
" />
    <glyph glyph-name="seven.inferior" unicode="&#x2087;" horiz-adv-x="716" 
d="M680 524l-293 -729h-201l299 729h-448v183h643v-183z" />
    <glyph glyph-name="eight.inferior" unicode="&#x2088;" horiz-adv-x="806" 
d="M45 47q0 83 43.5 147t116.5 89q-52 24 -82.5 73.5t-30.5 114.5q0 113 84.5 183.5t229.5 70.5q144 0 227.5 -70t83.5 -186q0 -68 -33.5 -117.5t-89.5 -70.5q76 -20 122 -83.5t46 -150.5q0 -123 -96.5 -194.5t-264.5 -71.5q-167 0 -261.5 71.5t-94.5 194.5zM264 451
q0 -44 35 -69.5t102 -25.5t102.5 25.5t35.5 69.5q0 43 -36 71.5t-102 28.5q-67 0 -102 -28t-35 -72zM248 74q0 -54 40 -82.5t113 -28.5q75 0 115.5 28.5t40.5 82.5t-41 83t-113 29t-113.5 -29t-41.5 -83z" />
    <glyph glyph-name="nine.inferior" unicode="&#x2089;" horiz-adv-x="806" 
d="M612 47l-186 -252h-231l227 305q-24 -8 -55 -8q-144 0 -233 84t-89 225q0 153 100 248.5t256 95.5t258.5 -98.5t102.5 -245.5q0 -86 -32 -161.5t-118 -192.5zM553 412q0 66 -42.5 108.5t-109.5 42.5q-66 0 -107.5 -42.5t-41.5 -108.5q0 -67 42 -111.5t107 -44.5
q67 0 109.5 44.5t42.5 111.5z" />
    <glyph glyph-name="Euro" unicode="&#x20ac;" horiz-adv-x="1218" 
d="M891 -25q-266 0 -454 127.5t-261 358.5h-151v229h110q-2 20 -2 64q0 39 2 57h-110v229h149q75 239 271.5 371.5t476.5 132.5q103 0 202 -24v-314q-100 27 -184 27q-313 0 -420 -193h449v-229h-506q-2 -16 -2 -53q0 -45 2 -68h506v-229h-441q105 -176 381 -176
q112 0 236 37v-320q-147 -27 -254 -27z" />
    <glyph glyph-name="numero" unicode="&#x2116;" horiz-adv-x="2686" 
d="M2595 1059q0 -207 -141.5 -342t-358.5 -135q-213 0 -358.5 138t-145.5 339q0 209 143.5 347t360.5 138q215 0 357.5 -138t142.5 -347zM485 0h-327v1516h327l639 -965v965h328v-1516h-328l-639 963v-963zM2304 1057q0 95 -57 151t-152 56q-97 0 -155 -56t-58 -151
q0 -85 61 -143t152 -58q89 0 149 57.5t60 143.5zM2554 227h-922v271h922v-271z" />
    <glyph glyph-name="soundcopyright" unicode="&#x2117;" horiz-adv-x="1069" 
d="M537 641q-194 0 -324.5 129.5t-130.5 321.5q0 190 131.5 320t323.5 130q193 0 321.5 -128t128.5 -322t-128.5 -322.5t-321.5 -128.5zM537 727q155 0 256.5 103.5t101.5 261.5t-101.5 261t-256.5 103q-157 0 -260 -103.5t-103 -260.5q0 -158 103 -261.5t260 -103.5z
M463 836h-92v505h207q88 0 142 -47.5t54 -124.5q0 -88 -52.5 -139t-143.5 -51h-115v-143zM463 1253v-186h115q47 0 72.5 25t25.5 71q0 90 -98 90h-115z" />
    <glyph glyph-name="trademark" unicode="&#x2122;" horiz-adv-x="1347" 
d="M246 1409h-193v107h500v-107h-193v-479h-114v479zM727 930h-106v586h106l197 -474l194 474h107v-586h-107v358l-149 -358h-92l-150 354v-354z" />
    <glyph glyph-name="estimated" unicode="&#x212e;" horiz-adv-x="1595" 
d="M123 723q0 160 50.5 296.5t139.5 231.5t214.5 149t271.5 54q148 0 272 -46.5t213 -132t139 -212.5t50 -283q0 -62 -3 -108h-1142v-369q80 -115 207 -177.5t288 -62.5q157 0 290 75t198 198l78 -29q-75 -151 -227 -238t-343 -87q-206 0 -364.5 93t-245 261.5t-86.5 386.5z
M328 1118v-373h940v410q-76 104 -199 160.5t-270 56.5q-150 0 -272 -68t-199 -186z" />
    <glyph glyph-name="oneeighth" unicode="&#x215b;" horiz-adv-x="1681" 
d="M225 1356h-196v160h370v-762h-174v602zM1399 1454l-985 -1454h-246l985 1454h246zM1036 211q0 69 37 122.5t98 72.5q-44 21 -70 64t-26 99q0 92 69.5 149.5t186.5 57.5q116 0 184 -56.5t68 -152.5q0 -57 -26 -99.5t-70 -61.5q61 -17 99 -70.5t38 -124.5q0 -101 -80 -162
t-215 -61t-214 60.5t-79 162.5zM1225 545q0 -35 27 -55.5t77 -20.5q48 0 75.5 21.5t27.5 56.5q0 34 -27 56t-76 22q-51 0 -77.5 -22.5t-26.5 -57.5zM1212 233q0 -42 31.5 -66t85.5 -24t85.5 24t31.5 66q0 44 -32 68.5t-85 24.5t-85 -24.5t-32 -68.5z" />
    <glyph glyph-name="threeeighths" unicode="&#x215c;" horiz-adv-x="1730" 
d="M37 1006h176q0 -53 28.5 -81t75.5 -28q44 0 71.5 28.5t27.5 75.5q0 45 -29.5 75t-91.5 30h-111v113l160 139h-272v158h499v-142l-163 -147q82 -20 133 -77.5t51 -150.5q0 -118 -80 -189t-199 -71q-117 0 -196.5 70.5t-79.5 196.5zM1448 1454l-985 -1454h-246l985 1454
h246zM1085 211q0 69 37.5 122.5t98.5 72.5q-44 21 -70.5 64t-26.5 99q0 92 69.5 149.5t186.5 57.5q116 0 184 -56.5t68 -152.5q0 -57 -26 -99.5t-70 -61.5q61 -17 99 -70.5t38 -124.5q0 -101 -80 -162t-215 -61t-214 60.5t-79 162.5zM1274 545q0 -35 27 -55.5t77 -20.5
q48 0 75.5 21.5t27.5 56.5q0 34 -27 56t-76 22q-50 0 -77 -22.5t-27 -57.5zM1262 233q0 -43 31 -66.5t85 -23.5t85.5 24t31.5 66q0 44 -32 68.5t-85 24.5t-84.5 -24.5t-31.5 -68.5z" />
    <glyph glyph-name="fiveeighths" unicode="&#x215d;" horiz-adv-x="1769" 
d="M330 739q-117 0 -197 70.5t-80 196.5h176q0 -53 28 -81t75 -28q56 0 85 33t29 90q0 58 -32 91.5t-84 33.5q-37 0 -68 -17t-43 -45l-164 21l101 412h432v-158h-314l-28 -98q45 28 110 28q125 0 196 -75.5t71 -192.5q0 -126 -81 -203.5t-212 -77.5zM1487 1454l-985 -1454
h-246l985 1454h246zM1124 211q0 69 37.5 122.5t98.5 72.5q-44 21 -70.5 64t-26.5 99q0 92 69.5 149.5t186.5 57.5q116 0 184 -56.5t68 -152.5q0 -57 -26 -99.5t-70 -61.5q61 -17 99 -70.5t38 -124.5q0 -101 -80 -162t-215 -61t-214 60.5t-79 162.5zM1313 545q0 -35 27 -55.5
t77 -20.5q48 0 75.5 21.5t27.5 56.5q0 34 -27 56t-76 22q-51 0 -77.5 -22.5t-26.5 -57.5zM1300 233q0 -42 31.5 -66t85.5 -24t85.5 24t31.5 66q0 44 -32 68.5t-85 24.5t-85 -24.5t-32 -68.5z" />
    <glyph glyph-name="seveneighths" unicode="&#x215e;" horiz-adv-x="1615" 
d="M403 1358h-374v158h546v-158l-256 -604h-176zM1333 1454l-985 -1454h-246l985 1454h246zM971 211q0 69 37 122.5t98 72.5q-44 21 -70 64t-26 99q0 92 69.5 149.5t186.5 57.5q116 0 184 -56.5t68 -152.5q0 -57 -26.5 -99.5t-70.5 -61.5q61 -18 99.5 -71t38.5 -124
q0 -101 -80 -162t-215 -61t-214 60.5t-79 162.5zM1159 545q0 -35 27.5 -55.5t77.5 -20.5q48 0 75 21.5t27 56.5q0 34 -26.5 56t-75.5 22q-51 0 -78 -22.5t-27 -57.5zM1147 233q0 -42 31.5 -66t85.5 -24t85 23.5t31 66.5q0 44 -31.5 68.5t-84.5 24.5t-85 -24.5t-32 -68.5z
" />
    <glyph glyph-name="arrowleft" unicode="&#x2190;" horiz-adv-x="2072" 
d="M1065 12l-166 -168l-776 772l776 777l166 -164l-492 -494h1377v-233h-1377z" />
    <glyph glyph-name="arrowup" unicode="&#x2191;" horiz-adv-x="1794" 
d="M289 842l-166 166l774 774l774 -774l-166 -166l-491 491v-1333h-234v1333z" />
    <glyph glyph-name="arrowright" unicode="&#x2192;" horiz-adv-x="2070" 
d="M1008 1243l166 164l774 -774l-774 -772l-166 166l491 491h-1376v232l1376 2z" />
    <glyph glyph-name="arrowdown" unicode="&#x2193;" horiz-adv-x="1792" 
d="M1507 688l162 -168l-774 -774l-772 774l168 168l489 -491v1374h234v-1376z" />
    <glyph glyph-name="arrowboth" unicode="&#x2194;" horiz-adv-x="2404" 
d="M123 582l635 628v-331l-197 -185l479 2v2h349v-2h454l-196 183v331l634 -628l-634 -635v329l200 187h-1290l201 -187v-329z" />
    <glyph glyph-name="arrowupdn" unicode="&#x2195;" horiz-adv-x="1509" 
d="M752 -397l-629 635h332l184 -197l-2 479h-2v348h2v455l-182 -197h-332l629 635l634 -635h-329l-187 201v-1290l187 201h329z" />
    <glyph glyph-name="arrowNW" unicode="&#x2196;" horiz-adv-x="1710" 
d="M123 1516l1094 -3v-235h-695l1065 -1114l-164 -164l-1067 1114v-696l-233 2v1096z" />
    <glyph glyph-name="arrowNE" unicode="&#x2197;" horiz-adv-x="1763" 
d="M545 1282v234h1095v-1094h-235v694l-1116 -1116l-166 164l1116 1118h-694z" />
    <glyph glyph-name="arrowSE" unicode="&#x2198;" horiz-adv-x="1759" 
d="M1403 1098l233 -2v-1096l-1093 2v236h694l-1114 1114l164 164l1116 -1115v697z" />
    <glyph glyph-name="arrowSW" unicode="&#x2199;" horiz-adv-x="1765" 
d="M1221 233l-2 -233h-1096l2 1094h235v-695l1119 1121l163 -164l-1118 -1123h697z" />
    <glyph glyph-name="partialdiff" unicode="&#x2202;" horiz-adv-x="1349" 
d="M94 537q0 130 43 237t117 176.5t171 107.5t206 38q153 0 241 -64q-121 272 -372 484h403q182 -197 267 -426t85 -447q0 -138 -33 -251t-89.5 -189.5t-133.5 -129t-162 -76.5t-178 -24q-114 0 -215 36.5t-179.5 105.5t-124.5 178t-46 244zM412 535q0 -123 73.5 -202
t188.5 -79q114 0 187 79t73 202t-73 201.5t-187 78.5q-117 0 -189.5 -78.5t-72.5 -201.5z" />
    <glyph glyph-name="emptyset" unicode="&#x2205;" horiz-adv-x="1783" 
d="M883 -25q-140 0 -266 50.5t-224 142.5l-168 -152l-143 156l178 162q-115 188 -115 426q0 164 56.5 309t154.5 249t235.5 164t293.5 60q290 0 495 -192l181 161l141 -155l-189 -172q111 -192 111 -424q0 -217 -98 -397t-268 -284t-375 -104zM453 760q0 -126 39 -217
l669 608q-112 98 -276 98q-193 0 -312.5 -135.5t-119.5 -353.5zM883 268q194 0 314 137.5t120 354.5q0 123 -37 213l-670 -606q113 -99 273 -99z" />
    <glyph glyph-name="increment" unicode="&#x2206;" horiz-adv-x="1478" 
d="M1376 0h-1274v279l492 1237h291l491 -1237v-279zM707 973l-273 -694h615l-279 692q-25 68 -31 96q-14 -58 -32 -94z" />
    <glyph glyph-name="product" unicode="&#x220f;" horiz-adv-x="1482" 
d="M489 0h-331v1516h1167v-1516h-332v1208h-504v-1208z" />
    <glyph glyph-name="summation" unicode="&#x2211;" horiz-adv-x="1222" 
d="M1120 0h-1018v332l422 436l-422 418v330h1018v-308h-631l431 -440l-439 -461h639v-307z" />
    <glyph glyph-name="minus" unicode="&#x2212;" 
d="M164 821h1024v-262h-1024v262z" />
    <glyph glyph-name="radical" unicode="&#x221a;" horiz-adv-x="1546" 
d="M401 0l-401 1022h328l229 -612l418 1108h530v-287h-315l-481 -1231h-308z" />
    <glyph glyph-name="infinity" unicode="&#x221e;" horiz-adv-x="1890" 
d="M82 596q0 195 125.5 321.5t320.5 126.5q132 0 227.5 -53t190.5 -180q93 127 188.5 180t227.5 53q195 0 320.5 -126.5t125.5 -321.5q0 -194 -125.5 -320t-320.5 -126q-132 0 -227 52.5t-189 178.5q-95 -126 -190.5 -178.5t-227.5 -52.5q-194 0 -320 126t-126 320zM365 596
q0 -78 45 -127t118 -49q82 0 143.5 46t90.5 130q-29 86 -89.5 131t-144.5 45q-74 0 -118.5 -48.5t-44.5 -127.5zM1128 596q29 -84 90.5 -130t143.5 -46q73 0 118.5 49t45.5 127t-45.5 127t-118.5 49q-84 0 -144.5 -45t-89.5 -131z" />
    <glyph glyph-name="integral" unicode="&#x222b;" horiz-adv-x="999" 
d="M242 -25h-181v287h156q63 0 93 35t30 119v686q0 200 115.5 320t302.5 120h180v-287h-156q-64 0 -93.5 -34.5t-29.5 -118.5v-686q0 -200 -115 -320.5t-302 -120.5z" />
    <glyph glyph-name="approxequal" unicode="&#x2248;" 
d="M950 1038h238q0 -163 -83 -271t-220 -108q-64 0 -125.5 21.5t-100.5 47.5t-84.5 47.5t-80.5 21.5q-93 0 -93 -121h-237q0 158 83.5 264.5t219.5 106.5q63 0 124 -21.5t99.5 -47.5t84 -47.5t83.5 -21.5q53 0 72.5 34t19.5 95zM950 608h238q0 -163 -83 -271t-220 -108
q-64 0 -125.5 21.5t-100.5 47.5t-84.5 47.5t-80.5 21.5q-93 0 -93 -121h-237q0 158 83.5 264t219.5 106q63 0 124 -21.5t99.5 -47t84 -47t83.5 -21.5q53 0 72.5 34t19.5 95z" />
    <glyph glyph-name="notequal" unicode="&#x2260;" 
d="M209 37l125 229h-170v262h313l103 189h-416v262h559l125 229h295l-125 -229h170v-262h-314l-102 -189h416v-262h-559l-125 -229h-295z" />
    <glyph glyph-name="lessequal" unicode="&#x2264;" 
d="M1188 569v-307l-1024 336v336l1024 336v-307l-723 -197zM164 0v262h1024v-262h-1024z" />
    <glyph glyph-name="greaterequal" unicode="&#x2265;" 
d="M1188 598l-1024 -336v307l723 197l-723 197v307l1024 -336v-336zM164 262h1024v-262h-1024v262z" />
    <glyph glyph-name="filledbox" unicode="&#x25a0;" horiz-adv-x="1699" 
d="M123 0v1454h1454v-1454h-1454z" />
    <glyph glyph-name="squarewhite" unicode="&#x25a1;" horiz-adv-x="1699" 
d="M123 0v1454h1454v-1454h-1454zM1348 1225h-996v-996h996v996z" />
    <glyph glyph-name="triagup" unicode="&#x25b2;" horiz-adv-x="1978" 
d="M123 0l866 1454l866 -1454h-1732z" />
    <glyph glyph-name="triangleupwhite" unicode="&#x25b3;" horiz-adv-x="1978" 
d="M991 1462l864 -1454h-1732zM475 203h1028l-514 860z" />
    <glyph glyph-name="lozenge" unicode="&#x25ca;" horiz-adv-x="1359" 
d="M1237 727l-408 -727h-299l-407 727l407 727h299zM920 727l-240 449l-240 -449l240 -448z" />
    <glyph glyph-name="circle" unicode="&#x25cb;" horiz-adv-x="1830" 
d="M915 -111q-161 0 -308 63t-253 169.5t-168.5 253t-62.5 307.5t63 308t169 253t252.5 169t307.5 63q160 0 306.5 -63t253 -169.5t170 -253.5t63.5 -307q0 -161 -63 -308t-169.5 -253t-253 -169t-307.5 -63zM915 94q159 0 294.5 79t214.5 214.5t79 294.5q0 119 -47 227.5
t-126 187.5t-187.5 126t-227.5 47q-159 0 -294.5 -79t-214 -214.5t-78.5 -294.5t78.5 -294.5t214 -214.5t294.5 -79z" />
    <glyph glyph-name="circleblack" unicode="&#x25cf;" horiz-adv-x="1830" 
d="M915 -111q-161 0 -308 63t-253 169.5t-168.5 253t-62.5 307.5t63 308t169 253t252.5 169t307.5 63q160 0 306.5 -63t253 -169.5t170 -253.5t63.5 -307q0 -161 -63 -308t-169.5 -253t-253 -169t-307.5 -63z" />
    <glyph glyph-name="peace" unicode="&#x262e;" horiz-adv-x="1830" 
d="M915 -111q-161 0 -308 63t-253 169.5t-168.5 253t-62.5 307.5t63 308t169 253t252.5 169t307.5 63q160 0 306.5 -63t253 -169.5t170 -253.5t63.5 -307q0 -161 -63 -308t-169.5 -253t-253 -169t-307.5 -63zM328 682q0 -114 45 -223l450 317v486q-139 -21 -252 -103
t-178 -207.5t-65 -269.5zM1503 682q0 217 -142 381.5t-353 198.5v-486l450 -317q45 109 45 223zM469 301q67 -80 158.5 -132t195.5 -67v449zM1008 551v-449q104 15 195.5 67t158.5 132z" />
    <glyph glyph-name="check" unicode="&#x2713;" horiz-adv-x="1400" 
d="M526 14l-444 480l176 186l260 -277l606 732l195 -168z" />
    <glyph glyph-name="ITF" unicode="&#xf8ff;" horiz-adv-x="3561" 
d="M123 0v1434h442v-1434h-442zM657 1016v418h443v-418h-443zM1190 0v1434h444v-1434h-444zM1724 1016v418h443v-418h-443zM2257 0v1434h444v-1434h-444zM2791 1016v418h443v-418h-443zM2791 506v420h443v-420h-443z" />
    <glyph glyph-name="G.ss01" horiz-adv-x="1611" 
d="M74 758q0 226 93 403.5t267 279t400 101.5q279 0 462.5 -142t227.5 -401h-348q-37 115 -126 175.5t-221 60.5q-183 0 -293 -129t-110 -348q0 -228 108.5 -350.5t288.5 -122.5q145 0 241.5 68.5t113.5 193.5h-375v291h725v-203q0 -98 -29.5 -193t-89.5 -179.5t-143 -148.5
t-198 -101.5t-247 -37.5q-337 0 -542 214.5t-205 568.5z" />
    <glyph glyph-name="idotaccent" horiz-adv-x="552" 
d="M276 1163q-69 0 -117 49t-48 119q0 69 48.5 118.5t116.5 49.5q69 0 118.5 -50t49.5 -118q0 -69 -49.5 -118.5t-118.5 -49.5zM119 0v1024h315v-1024h-315z" />
    <glyph glyph-name="a.ss01" horiz-adv-x="1310" 
d="M903 1024h289v-1024h-297l-16 131q-51 -67 -136.5 -113.5t-197.5 -46.5q-224 0 -353 154.5t-129 402.5q0 244 133.5 386.5t350.5 142.5q109 0 203 -44t137 -114zM874 512q0 115 -69 185.5t-180 70.5q-112 0 -178 -70.5t-66 -185.5t66 -185.5t178 -70.5q111 0 180 70.5
t69 185.5z" />
    <glyph glyph-name="g.ss02" horiz-adv-x="1161" 
d="M88 635q0 186 131.5 304t337.5 118q127 0 252 -49q35 78 110.5 124t170.5 46q29 0 43 -2v-250q-12 2 -37 2q-95 0 -144 -58q44 -45 69.5 -110.5t25.5 -136.5q0 -179 -128.5 -285.5t-345.5 -106.5q-106 0 -192 27q-78 -3 -78 -70q0 -69 119 -69h301q204 0 303.5 -73
t99.5 -224q0 -170 -151.5 -258t-446.5 -88q-269 0 -387 56t-118 183q0 69 43 119t118 72q-66 28 -101.5 79.5t-35.5 120.5q0 166 189 224q-148 110 -148 305zM395 645q0 -75 47.5 -120.5t126.5 -45.5q77 0 123.5 44.5t46.5 117.5q0 75 -47.5 121.5t-124.5 46.5
q-78 0 -125 -45t-47 -119zM279 -188q0 -48 56 -66t204 -18q146 0 213 21t67 65q0 34 -23.5 47.5t-82.5 13.5h-357q-77 -3 -77 -63z" />
    <glyph glyph-name="t.ss03" horiz-adv-x="772" 
d="M723 274l37 -254q-92 -45 -223 -45q-359 0 -359 383v404h-155v262h155v317h316v-317h227v-262h-227v-338q0 -92 32 -130t92 -38q50 0 105 18z" />
    <glyph glyph-name="f_y" horiz-adv-x="1785" 
d="M666 -492v265h174q79 0 120.5 30.5t71.5 112.5l19 49l-310 797h-262v-762h-315v762h-141v262h141v82q0 223 108.5 330.5t309.5 107.5q68 0 141 -12v-270h-88q-90 0 -123 -40.5t-33 -115.5v-82h498l223 -657l248 657h328l-521 -1247q-63 -151 -151.5 -224t-229.5 -73
q-113 0 -208 28z" />
    <glyph glyph-name="t_i" 
d="M1073 1184q-75 0 -127.5 52.5t-52.5 127.5t52.5 126.5t127.5 51.5q74 0 126 -51.5t52 -126.5t-52 -127.5t-126 -52.5zM532 0h-315v762h-194v262h194v317h315v-317h695v-1024h-318v762h-377v-762z" />
    <glyph glyph-name="t_t" horiz-adv-x="1472" 
d="M532 0h-315v762h-194v262h194v317h315v-317h410v317h315v-317h193v-262h-193v-762h-315v762h-410v-762z" />
    <glyph glyph-name="t_y" horiz-adv-x="1837" 
d="M528 0h-311v762h-194v262h194v317h311v-317h500l223 -657l248 657h328l-520 -1247q-63 -151 -151.5 -224t-229.5 -73q-114 0 -209 28v265h174q79 0 120.5 30.5t71.5 112.5l19 49l-309 797h-265v-762z" />
    <glyph glyph-name="zero.tf" 
d="M61 754q0 357 165.5 573.5t449.5 216.5q189 0 328.5 -99.5t212.5 -277.5t73 -413q0 -365 -160.5 -573t-453.5 -208t-454 208t-161 573zM389 754q0 -245 68.5 -367.5t218.5 -122.5t218.5 122.5t68.5 367.5q0 252 -68 375.5t-219 123.5t-219 -123.5t-68 -375.5z" />
    <glyph glyph-name="one.tf" 
d="M526 291v928h-368v297h688v-1225h387v-291h-1086v291h379z" />
    <glyph glyph-name="two.tf" 
d="M1233 4l-1081 -4v246l499 416q124 102 177 181t53 171q0 115 -54.5 175t-156.5 60q-106 0 -165 -69.5t-59 -196.5h-329q0 255 150.5 408t400.5 153q260 0 406.5 -134t146.5 -376q0 -147 -81 -275.5t-233 -256.5l-227 -191h553v-307z" />
    <glyph glyph-name="three.tf" 
d="M621 713h-222v213q2 2 6.5 5t6.5 5l329 289h-571v291h987v-265l-319 -280q163 -49 266.5 -174t103.5 -310q0 -155 -77.5 -273.5t-205 -179.5t-282.5 -61q-112 0 -209.5 34t-172.5 98.5t-118 165t-43 225.5h328q0 -110 60.5 -170t162.5 -60q97 0 157 61t60 162
q0 99 -60.5 161.5t-186.5 62.5z" />
    <glyph glyph-name="four.tf" 
d="M1294 268h-186v-268h-313v268h-754v291l653 957h414v-957h186v-291zM393 559h402v590z" />
    <glyph glyph-name="five.tf" 
d="M651 -25q-244 0 -393 144t-149 379h327q0 -107 59.5 -168.5t163.5 -61.5q113 0 177.5 68t64.5 188q0 117 -61.5 182.5t-173.5 65.5q-76 0 -140 -35.5t-92 -91.5l-303 57l191 814h823v-308h-586l-59 -221q102 60 241 60q223 0 361.5 -137t138.5 -365q0 -255 -163.5 -412.5
t-426.5 -157.5z" />
    <glyph glyph-name="six.tf" 
d="M344 1108l297 408h379l-346 -465q30 6 61 6q233 0 379 -147t146 -380q0 -247 -163 -402t-417 -155q-167 0 -302 73.5t-210.5 201t-75.5 284.5q0 136 55 259t197 317zM432 528q0 -117 69 -189.5t179 -72.5q108 0 176 72.5t68 189.5t-67.5 188.5t-176.5 71.5
q-112 0 -180 -71.5t-68 -188.5z" />
    <glyph glyph-name="seven.tf" 
d="M113 1516h1124v-308l-522 -1208h-344l532 1208h-790v308z" />
    <glyph glyph-name="eight.tf" 
d="M74 438q0 132 65 234.5t176 146.5q-186 91 -186 307q0 186 152.5 302t396.5 116q245 0 394 -116t149 -306q0 -106 -49.5 -185t-143.5 -120q114 -43 181 -144t67 -233q0 -214 -162.5 -339.5t-439.5 -125.5t-438.5 124.5t-161.5 338.5zM428 1094q0 -77 66 -121.5t178 -44.5
t177.5 44.5t65.5 121.5q0 78 -65.5 124t-177.5 46t-178 -46t-66 -124zM399 461q0 -92 73 -143.5t202 -51.5t201.5 51.5t72.5 143.5t-73 144t-201 52t-201.5 -52t-73.5 -144z" />
    <glyph glyph-name="nine.tf" 
d="M1008 408l-297 -408h-379l346 465q-30 -6 -62 -6q-233 0 -378.5 146.5t-145.5 379.5q0 247 163 402t417 155q167 0 302 -73.5t210.5 -201t75.5 -284.5q0 -136 -55 -258t-197 -317zM920 987q0 117 -69 189.5t-179 72.5q-108 0 -176 -72.5t-68 -189.5t67.5 -188.5
t176.5 -71.5q112 0 180 71.5t68 188.5z" />
    <glyph glyph-name="zero.dnom" horiz-adv-x="776" 
d="M66 379q0 179 86.5 288t234.5 109q154 0 239 -108t85 -289q0 -178 -87 -285.5t-237 -107.5q-154 0 -237.5 105.5t-83.5 287.5zM242 379q0 -121 35.5 -178.5t109.5 -57.5t109.5 57.5t35.5 178.5q0 123 -35.5 181t-109.5 58t-109.5 -57.5t-35.5 -181.5z" />
    <glyph glyph-name="one.dnom" horiz-adv-x="505" 
d="M225 602h-196v160h370v-762h-174v602z" />
    <glyph glyph-name="two.dnom" horiz-adv-x="675" 
d="M631 0h-561v129l252 197q106 84 106 178q0 54 -26 84t-72 30q-51 0 -80 -30t-29 -84h-176q0 120 80 196t207 76t199.5 -70t72.5 -192q0 -164 -164 -293l-80 -63h271v-158z" />
    <glyph glyph-name="three.dnom" horiz-adv-x="636" 
d="M37 252h176q0 -53 28.5 -81t75.5 -28q44 0 71.5 29t27.5 76q0 45 -29.5 74.5t-91.5 29.5h-111v113l160 139h-272v158h499v-141l-163 -148q82 -20 133 -77t51 -150q0 -118 -80 -189t-199 -71q-117 0 -196.5 70t-79.5 196z" />
    <glyph glyph-name="four.dnom" horiz-adv-x="702" 
d="M391 139h-366v137l319 486h213v-467h100v-156h-100v-139h-166v139zM217 295h174v262z" />
    <glyph glyph-name="five.dnom" horiz-adv-x="675" 
d="M330 -14q-117 0 -197 70t-80 196h176q0 -53 28 -81t75 -28q56 0 85 33t29 90q0 58 -32 91.5t-84 33.5q-37 0 -68 -17t-43 -44l-164 20l101 412h432v-158h-314l-28 -98q47 29 110 29q125 0 196 -76t71 -193q0 -126 -81 -203t-212 -77z" />
    <glyph glyph-name="six.dnom" horiz-adv-x="708" 
d="M178 569l144 193h204l-174 -234q20 4 33 4q123 0 196.5 -71t73.5 -189q0 -127 -83.5 -206.5t-215.5 -79.5q-131 0 -217 81t-86 205q0 74 26 136t99 161zM229 264q0 -55 35 -88t92 -33q56 0 89.5 33t33.5 88q0 56 -34.5 91.5t-88.5 35.5q-56 0 -91.5 -35.5t-35.5 -91.5z
" />
    <glyph glyph-name="seven.dnom" horiz-adv-x="604" 
d="M403 604h-374v158h546v-158l-256 -604h-176z" />
    <glyph glyph-name="eight.dnom" horiz-adv-x="702" 
d="M57 211q0 69 37.5 122.5t98.5 72.5q-44 21 -70.5 64t-26.5 99q0 92 69.5 149.5t186.5 57.5q116 0 184 -56.5t68 -152.5q0 -57 -26 -99.5t-70 -61.5q61 -17 99 -70.5t38 -124.5q0 -101 -80 -162t-215 -61t-214 60.5t-79 162.5zM246 545q0 -35 27 -55.5t77 -20.5
q48 0 75.5 21.5t27.5 56.5q0 34 -27 56t-76 22q-50 0 -77 -22.5t-27 -57.5zM233 233q0 -42 31.5 -66t85.5 -24t85.5 24t31.5 66q0 44 -32 68.5t-85 24.5t-85 -24.5t-32 -68.5z" />
    <glyph glyph-name="nine.dnom" horiz-adv-x="708" 
d="M530 193l-143 -193h-205l174 233q-20 -4 -32 -4q-123 0 -197 71t-74 189q0 127 83.5 207t215.5 80q131 0 217 -81.5t86 -205.5q0 -74 -26 -135.5t-99 -160.5zM479 498q0 55 -35 87.5t-92 32.5q-56 0 -89.5 -32.5t-33.5 -87.5q0 -56 34.5 -91.5t88.5 -35.5q56 0 91.5 35.5
t35.5 91.5z" />
    <glyph glyph-name="zero.numr" horiz-adv-x="776" 
d="M66 1133q0 179 86.5 288t234.5 109q154 0 239 -108t85 -289q0 -179 -87 -286.5t-237 -107.5q-154 0 -237.5 106t-83.5 288zM242 1133q0 -121 35.5 -178.5t109.5 -57.5t109.5 57.5t35.5 178.5q0 123 -35.5 181t-109.5 58t-109.5 -57.5t-35.5 -181.5z" />
    <glyph glyph-name="one.numr" horiz-adv-x="505" 
d="M225 1356h-196v160h370v-762h-174v602z" />
    <glyph glyph-name="two.numr" horiz-adv-x="675" 
d="M631 754h-561v129l252 196q106 84 106 178q0 54 -26 84.5t-72 30.5q-51 0 -80 -30.5t-29 -84.5h-176q0 120 80 196.5t207 76.5t199.5 -70t72.5 -192q0 -164 -164 -293l-80 -64h271v-157z" />
    <glyph glyph-name="three.numr" horiz-adv-x="636" 
d="M37 1006h176q0 -53 28.5 -81t75.5 -28q44 0 71.5 28.5t27.5 75.5q0 45 -29.5 75t-91.5 30h-111v113l160 139h-272v158h499v-142l-163 -147q82 -20 133 -77.5t51 -150.5q0 -118 -80 -189t-199 -71q-117 0 -196.5 70.5t-79.5 196.5z" />
    <glyph glyph-name="four.numr" horiz-adv-x="702" 
d="M391 893h-366v137l319 486h213v-467h100v-156h-100v-139h-166v139zM217 1049h174v262z" />
    <glyph glyph-name="five.numr" horiz-adv-x="675" 
d="M330 739q-117 0 -197 70.5t-80 196.5h176q0 -53 28 -81t75 -28q56 0 85 33t29 90q0 58 -32 91.5t-84 33.5q-37 0 -68 -17t-43 -45l-164 21l101 412h432v-158h-314l-28 -98q45 28 110 28q125 0 196 -75.5t71 -192.5q0 -126 -81 -203.5t-212 -77.5z" />
    <glyph glyph-name="six.numr" horiz-adv-x="708" 
d="M178 1323l144 193h204l-174 -234q20 4 33 4q123 0 196.5 -71t73.5 -189q0 -127 -83.5 -207t-215.5 -80q-131 0 -217 81.5t-86 205.5q0 74 26 136t99 161zM229 1018q0 -55 35 -88t92 -33q56 0 89.5 33t33.5 88q0 56 -34.5 91.5t-88.5 35.5q-56 0 -91.5 -35.5t-35.5 -91.5z
" />
    <glyph glyph-name="seven.numr" horiz-adv-x="604" 
d="M403 1358h-374v158h546v-158l-256 -604h-176z" />
    <glyph glyph-name="eight.numr" horiz-adv-x="702" 
d="M57 965q0 69 37 122t99 72q-44 21 -70.5 64.5t-26.5 99.5q0 92 69.5 149.5t186.5 57.5q116 0 184 -56.5t68 -152.5q0 -57 -26 -100t-70 -62q61 -18 99 -70.5t38 -123.5q0 -102 -80 -163t-215 -61q-134 0 -213.5 61t-79.5 163zM246 1298q0 -34 27 -54.5t77 -20.5
q48 0 75.5 21t27.5 56q0 34 -27 56t-76 22q-50 0 -77 -22.5t-27 -57.5zM233 987q0 -42 31.5 -66t85.5 -24t85.5 24t31.5 66q0 44 -32 68t-85 24t-85 -24t-32 -68z" />
    <glyph glyph-name="nine.numr" horiz-adv-x="708" 
d="M530 946l-143 -192h-205l174 233q-20 -4 -32 -4q-123 0 -197 71t-74 189q0 127 83.5 207t215.5 80q131 0 217 -81.5t86 -205.5q0 -74 -26 -136t-99 -161zM479 1251q0 55 -35 88t-92 33q-56 0 -89.5 -33t-33.5 -88q0 -56 34.5 -91.5t88.5 -35.5q56 0 91.5 36t35.5 91z" />
    <glyph glyph-name="registered.ss01" horiz-adv-x="1259" 
d="M633 453q-154 0 -280.5 71t-198.5 196t-72 277q0 230 159 387.5t392 157.5t389 -156t156 -389q0 -153 -70.5 -278t-195.5 -195.5t-279 -70.5zM633 565q184 0 304 122t120 310t-120 310.5t-304 122.5q-186 0 -308 -123.5t-122 -309.5q0 -188 121.5 -310t308.5 -122z
M539 725h-113v561h236q100 0 157.5 -47.5t57.5 -130.5q0 -109 -107 -168l117 -215h-127l-94 188h-127v-188zM752 1102q0 80 -103 80h-110v-166h110q47 0 75 23t28 63z" />
    <glyph glyph-name="bracketleftsuperior" horiz-adv-x="466" 
d="M266 586h191v-152h-375v1381h375v-152h-191v-1077z" />
    <glyph glyph-name="bracketrightsuperior" horiz-adv-x="466" 
d="M201 1663h-191v152h375v-1381h-375v152h191v1077z" />
    <glyph glyph-name="Gbreve.ss01" horiz-adv-x="1611" 
d="M940 1964h221q0 -167 -98 -266t-262 -99q-169 0 -267 98t-98 267h223q0 -76 37 -118t105 -42q66 0 102.5 42.5t36.5 117.5zM74 758q0 226 93 403.5t267 279t400 101.5q279 0 462.5 -142t227.5 -401h-348q-37 115 -126 175.5t-221 60.5q-183 0 -293 -129t-110 -348
q0 -228 108.5 -350.5t288.5 -122.5q145 0 241.5 68.5t113.5 193.5h-375v291h725v-203q0 -98 -29.5 -193t-89.5 -179.5t-143 -148.5t-198 -101.5t-247 -37.5q-337 0 -542 214.5t-205 568.5z" />
    <glyph glyph-name="Gcircumflex.ss01" horiz-adv-x="1611" 
d="M682 1620h-238l203 360h303l203 -360h-238l-116 215zM74 758q0 226 93 403.5t267 279t400 101.5q279 0 462.5 -142t227.5 -401h-348q-37 115 -126 175.5t-221 60.5q-183 0 -293 -129t-110 -348q0 -228 108.5 -350.5t288.5 -122.5q145 0 241.5 68.5t113.5 193.5h-375v291
h725v-203q0 -98 -29.5 -193t-89.5 -179.5t-143 -148.5t-198 -101.5t-247 -37.5q-337 0 -542 214.5t-205 568.5z" />
    <glyph glyph-name="Gcommaaccent.ss01" horiz-adv-x="1611" 
d="M74 758q0 226 93 403.5t267 279t400 101.5q279 0 462.5 -142t227.5 -401h-348q-37 115 -126 175.5t-221 60.5q-183 0 -293 -129t-110 -348q0 -228 108.5 -350.5t288.5 -122.5q145 0 241.5 68.5t113.5 193.5h-375v291h725v-203q0 -98 -29.5 -193t-89.5 -179.5t-143 -148.5
t-198 -101.5t-247 -37.5q-337 0 -542 214.5t-205 568.5zM995 -250q0 -123 -74.5 -196t-213.5 -54v97q159 -20 165 77q-20 -14 -57 -14q-56 0 -90.5 37t-34.5 94q0 63 41 101t109 38q70 0 112.5 -49t42.5 -131z" />
    <glyph glyph-name="Gdotaccent.ss01" horiz-adv-x="1611" 
d="M797 1634q-69 0 -117.5 49t-48.5 119q0 69 49 118.5t117 49.5q69 0 118.5 -50t49.5 -118q0 -69 -49.5 -118.5t-118.5 -49.5zM74 758q0 226 93 403.5t267 279t400 101.5q279 0 462.5 -142t227.5 -401h-348q-37 115 -126 175.5t-221 60.5q-183 0 -293 -129t-110 -348
q0 -228 108.5 -350.5t288.5 -122.5q145 0 241.5 68.5t113.5 193.5h-375v291h725v-203q0 -98 -29.5 -193t-89.5 -179.5t-143 -148.5t-198 -101.5t-247 -37.5q-337 0 -542 214.5t-205 568.5z" />
    <glyph glyph-name="Q.ss04" horiz-adv-x="1632" 
d="M1350 -270l-508 245h-29q-216 0 -384.5 98.5t-261.5 277t-93 407.5t93.5 407.5t262.5 277.5t385 99q163 0 301.5 -57.5t236 -159.5t152 -248t54.5 -317q0 -216 -83.5 -387t-234.5 -273l225 -108zM1208 760q0 217 -104 340t-287 123q-184 0 -288.5 -123t-104.5 -340
q0 -218 104.5 -341.5t288.5 -123.5q183 0 287 124.5t104 340.5z" />
    <glyph glyph-name="aacute.ss01" horiz-adv-x="1310" 
d="M969 1489l-228 -340h-227l172 340h283zM903 1024h289v-1024h-297l-16 131q-51 -67 -136.5 -113.5t-197.5 -46.5q-224 0 -353 154.5t-129 402.5q0 244 133.5 386.5t350.5 142.5q109 0 203 -44t137 -114zM874 512q0 115 -69 185.5t-180 70.5q-112 0 -178 -70.5t-66 -185.5
t66 -185.5t178 -70.5q111 0 180 70.5t69 185.5z" />
    <glyph glyph-name="abreve.ss01" horiz-adv-x="1310" 
d="M770 1493h221q0 -167 -98 -266t-262 -99q-169 0 -267 98t-98 267h223q0 -76 37 -118t105 -42q66 0 102.5 42.5t36.5 117.5zM903 1024h289v-1024h-297l-16 131q-51 -67 -136.5 -113.5t-197.5 -46.5q-224 0 -353 154.5t-129 402.5q0 244 133.5 386.5t350.5 142.5
q109 0 203 -44t137 -114zM874 512q0 115 -69 185.5t-180 70.5q-112 0 -178 -70.5t-66 -185.5t66 -185.5t178 -70.5q111 0 180 70.5t69 185.5z" />
    <glyph glyph-name="acircumflex.ss01" horiz-adv-x="1310" 
d="M512 1149h-238l203 360h303l203 -360h-238l-116 215zM903 1024h289v-1024h-297l-16 131q-51 -67 -136.5 -113.5t-197.5 -46.5q-224 0 -353 154.5t-129 402.5q0 244 133.5 386.5t350.5 142.5q109 0 203 -44t137 -114zM874 512q0 115 -69 185.5t-180 70.5
q-112 0 -178 -70.5t-66 -185.5t66 -185.5t178 -70.5q111 0 180 70.5t69 185.5z" />
    <glyph glyph-name="adieresis.ss01" horiz-adv-x="1310" 
d="M426 1163q-66 0 -112 46.5t-46 113.5q0 65 47 111.5t111 46.5t111 -47.5t47 -110.5q0 -66 -46.5 -113t-111.5 -47zM831 1163q-66 0 -111.5 46.5t-45.5 113.5q0 65 46.5 111.5t110.5 46.5t111 -47.5t47 -110.5q0 -66 -46.5 -113t-111.5 -47zM903 1024h289v-1024h-297
l-16 131q-51 -67 -136.5 -113.5t-197.5 -46.5q-224 0 -353 154.5t-129 402.5q0 244 133.5 386.5t350.5 142.5q109 0 203 -44t137 -114zM874 512q0 115 -69 185.5t-180 70.5q-112 0 -178 -70.5t-66 -185.5t66 -185.5t178 -70.5q111 0 180 70.5t69 185.5z" />
    <glyph glyph-name="agrave.ss01" horiz-adv-x="1310" 
d="M741 1149h-227l-227 340h282zM903 1024h289v-1024h-297l-16 131q-51 -67 -136.5 -113.5t-197.5 -46.5q-224 0 -353 154.5t-129 402.5q0 244 133.5 386.5t350.5 142.5q109 0 203 -44t137 -114zM874 512q0 115 -69 185.5t-180 70.5q-112 0 -178 -70.5t-66 -185.5t66 -185.5
t178 -70.5q111 0 180 70.5t69 185.5z" />
    <glyph glyph-name="amacron.ss01" horiz-adv-x="1310" 
d="M332 1202v213h594v-213h-594zM903 1024h289v-1024h-297l-16 131q-51 -67 -136.5 -113.5t-197.5 -46.5q-224 0 -353 154.5t-129 402.5q0 244 133.5 386.5t350.5 142.5q109 0 203 -44t137 -114zM874 512q0 115 -69 185.5t-180 70.5q-112 0 -178 -70.5t-66 -185.5t66 -185.5
t178 -70.5q111 0 180 70.5t69 185.5z" />
    <glyph glyph-name="aogonek.ss01" horiz-adv-x="1310" 
d="M1004 0h-109l-16 131q-51 -67 -136.5 -113.5t-197.5 -46.5q-224 0 -353 154.5t-129 402.5q0 244 133.5 386.5t350.5 142.5q109 0 203 -44t137 -114l16 125h289v-1024h-2q-81 -28 -122.5 -73.5t-41.5 -92.5q0 -35 23.5 -58.5t62.5 -23.5q30 0 64 15v-201q-53 -23 -121 -23
q-106 0 -171 63.5t-65 155.5q0 75 47 139.5t138 98.5zM874 512q0 115 -69 185.5t-180 70.5q-112 0 -178 -70.5t-66 -185.5t66 -185.5t178 -70.5q111 0 180 70.5t69 185.5z" />
    <glyph glyph-name="aring.ss01" horiz-adv-x="1310" 
d="M629 1112q-126 0 -207.5 80.5t-81.5 204.5q0 122 83 204t206 82t206 -82t83 -204t-82.5 -203.5t-206.5 -81.5zM629 1272q55 0 88 35t33 94q0 54 -33.5 88.5t-87.5 34.5t-87.5 -34t-33.5 -89q0 -59 33 -94t88 -35zM903 1024h289v-1024h-297l-16 131q-51 -67 -136.5 -113.5
t-197.5 -46.5q-224 0 -353 154.5t-129 402.5q0 244 133.5 386.5t350.5 142.5q109 0 203 -44t137 -114zM874 512q0 115 -69 185.5t-180 70.5q-112 0 -178 -70.5t-66 -185.5t66 -185.5t178 -70.5q111 0 180 70.5t69 185.5z" />
    <glyph glyph-name="aringacute.ss01" horiz-adv-x="1310" 
d="M877 1796l-209 -293h-209l157 293h261zM903 1024h289v-1024h-297l-16 131q-51 -67 -136.5 -113.5t-197.5 -46.5q-224 0 -353 154.5t-129 402.5q0 172 69.5 296t191.5 184q-56 75 -56 174q0 122 83 204t206 82t206 -82t83 -204q0 -106 -66 -185q76 -46 107 -98zM557 1057
q55 0 88 35t33 94q0 54 -33.5 88.5t-87.5 34.5t-87.5 -34t-33.5 -89q0 -59 33 -94t88 -35zM874 512q0 115 -69 185.5t-180 70.5q-112 0 -178 -70.5t-66 -185.5t66 -185.5t178 -70.5q111 0 180 70.5t69 185.5z" />
    <glyph glyph-name="atilde.ss01" horiz-adv-x="1310" 
d="M416 1155l-176 -2q-19 150 40.5 241t172.5 91q51 0 100 -20t81 -43.5t68.5 -43.5t65.5 -20q74 0 74 127h176q17 -163 -42.5 -247.5t-172.5 -84.5q-53 0 -104 20t-83.5 43.5t-68 43.5t-60.5 20q-71 0 -71 -125zM903 1024h289v-1024h-297l-16 131q-51 -67 -136.5 -113.5
t-197.5 -46.5q-224 0 -353 154.5t-129 402.5q0 244 133.5 386.5t350.5 142.5q109 0 203 -44t137 -114zM874 512q0 115 -69 185.5t-180 70.5q-112 0 -178 -70.5t-66 -185.5t66 -185.5t178 -70.5q111 0 180 70.5t69 185.5z" />
    <glyph glyph-name="gbreve.ss02" horiz-adv-x="1161" 
d="M735 1493h221q0 -167 -98 -266t-262 -99q-169 0 -267 98t-98 267h224q0 -77 37 -118.5t104 -41.5q66 0 102.5 42.5t36.5 117.5zM88 635q0 186 131.5 304t337.5 118q127 0 252 -49q35 78 110.5 124t170.5 46q29 0 43 -2v-250q-12 2 -37 2q-95 0 -144 -58
q44 -45 69.5 -110.5t25.5 -136.5q0 -179 -128.5 -285.5t-345.5 -106.5q-106 0 -192 27q-78 -3 -78 -70q0 -69 119 -69h301q204 0 303.5 -73t99.5 -224q0 -170 -151.5 -258t-446.5 -88q-269 0 -387 56t-118 183q0 69 43 119t118 72q-66 28 -101.5 79.5t-35.5 120.5
q0 166 189 224q-148 110 -148 305zM395 645q0 -75 47.5 -120.5t126.5 -45.5q77 0 123.5 44.5t46.5 117.5q0 75 -47.5 121.5t-124.5 46.5q-78 0 -125 -45t-47 -119zM279 -188q0 -48 56 -66t204 -18q146 0 213 21t67 65q0 34 -23.5 47.5t-82.5 13.5h-357q-77 -3 -77 -63z" />
    <glyph glyph-name="gcircumflex.ss02" horiz-adv-x="1161" 
d="M477 1149h-237l202 360h303l203 -360h-237l-117 215zM88 635q0 186 131.5 304t337.5 118q127 0 252 -49q35 78 110.5 124t170.5 46q29 0 43 -2v-250q-12 2 -37 2q-95 0 -144 -58q44 -45 69.5 -110.5t25.5 -136.5q0 -179 -128.5 -285.5t-345.5 -106.5q-106 0 -192 27
q-78 -3 -78 -70q0 -69 119 -69h301q204 0 303.5 -73t99.5 -224q0 -170 -151.5 -258t-446.5 -88q-269 0 -387 56t-118 183q0 69 43 119t118 72q-66 28 -101.5 79.5t-35.5 120.5q0 166 189 224q-148 110 -148 305zM395 645q0 -75 47.5 -120.5t126.5 -45.5q77 0 123.5 44.5
t46.5 117.5q0 75 -47.5 121.5t-124.5 46.5q-78 0 -125 -45t-47 -119zM279 -188q0 -48 56 -66t204 -18q146 0 213 21t67 65q0 34 -23.5 47.5t-82.5 13.5h-357q-77 -3 -77 -63z" />
    <glyph glyph-name="gcommaaccent.ss02" horiz-adv-x="1161" 
d="M731 1329q0 -63 -40.5 -101t-108.5 -38q-71 0 -113.5 49t-42.5 131q0 123 75 196t214 54v-96q-160 21 -166 -78q20 14 57 14q56 0 90.5 -37t34.5 -94zM88 635q0 186 131.5 304t337.5 118q127 0 252 -49q35 78 110.5 124t170.5 46q29 0 43 -2v-250q-12 2 -37 2
q-95 0 -144 -58q44 -45 69.5 -110.5t25.5 -136.5q0 -179 -128.5 -285.5t-345.5 -106.5q-106 0 -192 27q-78 -3 -78 -70q0 -69 119 -69h301q204 0 303.5 -73t99.5 -224q0 -170 -151.5 -258t-446.5 -88q-269 0 -387 56t-118 183q0 69 43 119t118 72q-66 28 -101.5 79.5
t-35.5 120.5q0 166 189 224q-148 110 -148 305zM395 645q0 -75 47.5 -120.5t126.5 -45.5q77 0 123.5 44.5t46.5 117.5q0 75 -47.5 121.5t-124.5 46.5q-78 0 -125 -45t-47 -119zM279 -188q0 -48 56 -66t204 -18q146 0 213 21t67 65q0 34 -23.5 47.5t-82.5 13.5h-357
q-77 -3 -77 -63z" />
    <glyph glyph-name="gdotaccent.ss02" horiz-adv-x="1161" 
d="M592 1163q-69 0 -117.5 49t-48.5 119q0 69 49 118.5t117 49.5q69 0 118.5 -50t49.5 -118q0 -69 -49.5 -118.5t-118.5 -49.5zM88 635q0 186 131.5 304t337.5 118q127 0 252 -49q35 78 110.5 124t170.5 46q29 0 43 -2v-250q-12 2 -37 2q-95 0 -144 -58q44 -45 69.5 -110.5
t25.5 -136.5q0 -179 -128.5 -285.5t-345.5 -106.5q-106 0 -192 27q-78 -3 -78 -70q0 -69 119 -69h301q204 0 303.5 -73t99.5 -224q0 -170 -151.5 -258t-446.5 -88q-269 0 -387 56t-118 183q0 69 43 119t118 72q-66 28 -101.5 79.5t-35.5 120.5q0 166 189 224
q-148 110 -148 305zM395 645q0 -75 47.5 -120.5t126.5 -45.5q77 0 123.5 44.5t46.5 117.5q0 75 -47.5 121.5t-124.5 46.5q-78 0 -125 -45t-47 -119zM279 -188q0 -48 56 -66t204 -18q146 0 213 21t67 65q0 34 -23.5 47.5t-82.5 13.5h-357q-77 -3 -77 -63z" />
    <glyph glyph-name="tbar.ss03" horiz-adv-x="782" 
d="M49 629h129v133h-155v262h155v317h316v-317h227v-262h-227v-133h165v-242h-163q10 -131 122 -131q50 0 105 18l37 -254q-92 -45 -223 -45q-359 0 -359 383v29h-129v242z" />
    <glyph glyph-name="tcaron.ss03" horiz-adv-x="772" 
d="M580 1114v402h251l-65 -402h-186zM723 274l37 -254q-92 -45 -223 -45q-359 0 -359 383v404h-155v262h155v317h316v-317h227v-262h-227v-338q0 -92 32 -130t92 -38q50 0 105 18z" />
    <glyph glyph-name="tcedilla.ss03" horiz-adv-x="772" 
d="M340 -436v131q86 -39 149 -39q58 0 86.5 22.5t28.5 61.5q0 34 -23.5 53t-66.5 19q-51 0 -100 -17l-29 80l53 109q-260 48 -260 374v404h-155v262h155v317h316v-317h227v-262h-227v-338q0 -92 32 -130t92 -38q50 0 105 18l37 -254q-85 -42 -207 -45l-39 -73q30 12 74 12
q71 0 124.5 -43t53.5 -131q0 -101 -73.5 -158t-186.5 -57q-90 0 -166 39z" />
    <glyph glyph-name="tcommaaccent.ss03" horiz-adv-x="772" 
d="M723 274l37 -254q-92 -45 -223 -45q-359 0 -359 383v404h-155v262h155v317h316v-317h227v-262h-227v-338q0 -92 32 -130t92 -38q50 0 105 18zM657 -250q0 -123 -74.5 -196t-213.5 -54v97q160 -21 166 77q-20 -14 -58 -14q-56 0 -90.5 37t-34.5 94q0 63 41 101t109 38
q70 0 112.5 -49t42.5 -131z" />
    <glyph glyph-name="caroncomb.alt" horiz-adv-x="1138" 
d="M623 1114v402h251l-65 -402h-186z" />
    <glyph glyph-name="strokeshortcomb.case" horiz-adv-x="847" 
d="M41 625v268h766v-268h-766z" />
    <glyph glyph-name="strokelongcomb.case" horiz-adv-x="1640" 
d="M41 1079v279h1558v-279h-1558z" />
    <glyph glyph-name="slashshortcomb.case" horiz-adv-x="772" 
d="M41 573v246l690 330v-246z" />
    <glyph glyph-name="slashlongcomb.case" horiz-adv-x="1196" 
d="M1319 1516l-1129 -1516h-313l1143 1516h299z" />
    <glyph glyph-name="dotaccentcomb.i" horiz-adv-x="497" 
d="M246 1614q-75 0 -127.5 52.5t-52.5 127.5t52.5 126.5t127.5 51.5q74 0 126 -51.5t52 -126.5t-52 -127.5t-126 -52.5z" />
    </font>
</defs>
</svg>
